  0
SECTION
  2
HEADER
  9
$ACADVER
  1
AC1015
  9
$ACADMAINTVER
 70
    20
  9
$DWGCODEPAGE
  3
ANSI_936
  9
$INSBASE
 10
0.0
 20
0.0
 30
0.0
  9
$EXTMIN
 10
817.9595832473225
 20
-70.02721293615102
 30
0.0
  9
$EXTMAX
 10
1169.54854456531
 20
228.1846091636204
 30
0.0
  9
$LIMMIN
 10
0.0
 20
0.0
  9
$LIMMAX
 10
12.0
 20
9.0
  9
$ORTHOMODE
 70
     1
  9
$REGENMODE
 70
     1
  9
$FILLMODE
 70
     1
  9
$QTEXTMODE
 70
     0
  9
$MIRRTEXT
 70
     0
  9
$LTSCALE
 40
1.0
  9
$ATTMODE
 70
     1
  9
$TEXTSIZE
 40
0.2
  9
$TRACEWID
 40
0.05
  9
$TEXTSTYLE
  7
STANDARD
  9
$CLAYER
  8
标注
  9
$CELTYPE
  6
ByLayer
  9
$CECOLOR
 62
   256
  9
$CELTSCALE
 40
1.0
  9
$DISPSILH
 70
     0
  9
$DIMSCALE
 40
1.0
  9
$DIMASZ
 40
0.65
  9
$DIMEXO
 40
0.88
  9
$DIMDLI
 40
0.015
  9
$DIMRND
 40
0.0
  9
$DIMDLE
 40
0.0
  9
$DIMEXE
 40
0.32
  9
$DIMTP
 40
0.0
  9
$DIMTM
 40
0.0
  9
$DIMTXT
 40
0.65
  9
$DIMCEN
 40
0.09
  9
$DIMTSZ
 40
0.0
  9
$DIMTOL
 70
     0
  9
$DIMLIM
 70
     0
  9
$DIMTIH
 70
     0
  9
$DIMTOH
 70
     0
  9
$DIMSE1
 70
     0
  9
$DIMSE2
 70
     0
  9
$DIMTAD
 70
     0
  9
$DIMZIN
 70
     8
  9
$DIMBLK
  1

  9
$DIMASO
 70
     1
  9
$DIMSHO
 70
     1
  9
$DIMPOST
  1
"
  9
$DIMAPOST
  1
"
  9
$DIMALT
 70
     0
  9
$DIMALTD
 70
     1
  9
$DIMALTF
 40
0.03937
  9
$DIMLFAC
 40
1.0
  9
$DIMTOFL
 70
     1
  9
$DIMTVP
 40
0.0
  9
$DIMTIX
 70
     0
  9
$DIMSOXD
 70
     0
  9
$DIMSAH
 70
     0
  9
$DIMBLK1
  1

  9
$DIMBLK2
  1

  9
$DIMSTYLE
  2
副本STANDARD
  9
$DIMCLRD
 70
   256
  9
$DIMCLRE
 70
   256
  9
$DIMCLRT
 70
   256
  9
$DIMTFAC
 40
1.0
  9
$DIMGAP
 40
0.3
  9
$DIMJUST
 70
     0
  9
$DIMSD1
 70
     0
  9
$DIMSD2
 70
     0
  9
$DIMTOLJ
 70
     1
  9
$DIMTZIN
 70
     8
  9
$DIMALTZ
 70
     8
  9
$DIMALTTZ
 70
     8
  9
$DIMUPT
 70
     0
  9
$DIMDEC
 70
     3
  9
$DIMTDEC
 70
     3
  9
$DIMALTU
 70
     2
  9
$DIMALTTD
 70
     1
  9
$DIMTXSTY
  7
STANDARD
  9
$DIMAUNIT
 70
     0
  9
$DIMADEC
 70
     0
  9
$DIMALTRND
 40
0.0
  9
$DIMAZIN
 70
     0
  9
$DIMDSEP
 70
    46
  9
$DIMATFIT
 70
     3
  9
$DIMFRAC
 70
     2
  9
$DIMLDRBLK
  1

  9
$DIMLUNIT
 70
     5
  9
$DIMLWD
 70
    -2
  9
$DIMLWE
 70
    -2
  9
$DIMTMOVE
 70
     2
  9
$LUNITS
 70
     2
  9
$LUPREC
 70
     4
  9
$SKETCHINC
 40
0.1
  9
$FILLETRAD
 40
0.0
  9
$AUNITS
 70
     0
  9
$AUPREC
 70
     0
  9
$MENU
  1
.
  9
$ELEVATION
 40
0.0
  9
$PELEVATION
 40
0.0
  9
$THICKNESS
 40
0.0
  9
$LIMCHECK
 70
     0
  9
$CHAMFERA
 40
0.0
  9
$CHAMFERB
 40
0.0
  9
$CHAMFERC
 40
0.0
  9
$CHAMFERD
 40
0.0
  9
$SKPOLY
 70
     0
  9
$TDCREATE
 40
2455434.724808658
  9
$TDUCREATE
 40
2455434.391475324
  9
$TDUPDATE
 40
2458562.576724190
  9
$TDUUPDATE
 40
2458562.243390856
  9
$TDINDWG
 40
0.5625449769
  9
$TDUSRTIMER
 40
0.5625279745
  9
$USRTIMER
 70
     1
  9
$ANGBASE
 50
0.0
  9
$ANGDIR
 70
     0
  9
$PDMODE
 70
     0
  9
$PDSIZE
 40
0.0
  9
$PLINEWID
 40
0.0
  9
$SPLFRAME
 70
     0
  9
$SPLINETYPE
 70
     6
  9
$SPLINESEGS
 70
     8
  9
$HANDSEED
  5
7890
  9
$SURFTAB1
 70
     6
  9
$SURFTAB2
 70
     6
  9
$SURFTYPE
 70
     6
  9
$SURFU
 70
     6
  9
$SURFV
 70
     6
  9
$UCSBASE
  2

  9
$UCSNAME
  2

  9
$UCSORG
 10
0.0
 20
0.0
 30
0.0
  9
$UCSXDIR
 10
1.0
 20
0.0
 30
0.0
  9
$UCSYDIR
 10
0.0
 20
1.0
 30
0.0
  9
$UCSORTHOREF
  2

  9
$UCSORTHOVIEW
 70
     0
  9
$UCSORGTOP
 10
0.0
 20
0.0
 30
0.0
  9
$UCSORGBOTTOM
 10
0.0
 20
0.0
 30
0.0
  9
$UCSORGLEFT
 10
0.0
 20
0.0
 30
0.0
  9
$UCSORGRIGHT
 10
0.0
 20
0.0
 30
0.0
  9
$UCSORGFRONT
 10
0.0
 20
0.0
 30
0.0
  9
$UCSORGBACK
 10
0.0
 20
0.0
 30
0.0
  9
$PUCSBASE
  2

  9
$PUCSNAME
  2

  9
$PUCSORG
 10
0.0
 20
0.0
 30
0.0
  9
$PUCSXDIR
 10
1.0
 20
0.0
 30
0.0
  9
$PUCSYDIR
 10
0.0
 20
1.0
 30
0.0
  9
$PUCSORTHOREF
  2

  9
$PUCSORTHOVIEW
 70
     0
  9
$PUCSORGTOP
 10
0.0
 20
0.0
 30
0.0
  9
$PUCSORGBOTTOM
 10
0.0
 20
0.0
 30
0.0
  9
$PUCSORGLEFT
 10
0.0
 20
0.0
 30
0.0
  9
$PUCSORGRIGHT
 10
0.0
 20
0.0
 30
0.0
  9
$PUCSORGFRONT
 10
0.0
 20
0.0
 30
0.0
  9
$PUCSORGBACK
 10
0.0
 20
0.0
 30
0.0
  9
$USERI1
 70
     0
  9
$USERI2
 70
     0
  9
$USERI3
 70
     0
  9
$USERI4
 70
     0
  9
$USERI5
 70
     0
  9
$USERR1
 40
0.0
  9
$USERR2
 40
0.0
  9
$USERR3
 40
0.0
  9
$USERR4
 40
0.0
  9
$USERR5
 40
2.5
  9
$WORLDVIEW
 70
     1
  9
$SHADEDGE
 70
     3
  9
$SHADEDIF
 70
    70
  9
$TILEMODE
 70
     1
  9
$MAXACTVP
 70
    64
  9
$PINSBASE
 10
0.0
 20
0.0
 30
0.0
  9
$PLIMCHECK
 70
     0
  9
$PEXTMIN
 10
1.000000000000000E+20
 20
1.000000000000000E+20
 30
1.000000000000000E+20
  9
$PEXTMAX
 10
-1.000000000000000E+20
 20
-1.000000000000000E+20
 30
-1.000000000000000E+20
  9
$PLIMMIN
 10
0.0
 20
0.0
  9
$PLIMMAX
 10
12.0
 20
9.0
  9
$UNITMODE
 70
     0
  9
$VISRETAIN
 70
     1
  9
$PLINEGEN
 70
     0
  9
$PSLTSCALE
 70
     1
  9
$TREEDEPTH
 70
  3020
  9
$CMLSTYLE
  2
Standard
  9
$CMLJUST
 70
     0
  9
$CMLSCALE
 40
1.0
  9
$PROXYGRAPHICS
 70
     1
  9
$MEASUREMENT
 70
     0
  9
$CELWEIGHT
370
    -1
  9
$ENDCAPS
280
     0
  9
$JOINSTYLE
280
     0
  9
$LWDISPLAY
290
     0
  9
$INSUNITS
 70
     0
  9
$HYPERLINKBASE
  1

  9
$STYLESHEET
  1

  9
$XEDIT
290
     1
  9
$CEPSNTYPE
380
     0
  9
$PSTYLEMODE
290
     1
  9
$FINGERPRINTGUID
  2
{7BAC09DB-C4D0-41DB-8C07-4C6808ADD930}
  9
$VERSIONGUID
  2
{B7F3CE69-20A8-45C9-8F4A-ADB63BC444EB}
  9
$EXTNAMES
290
     1
  9
$PSVPSCALE
 40
0.0
  9
$OLESTARTUP
290
     0
  0
ENDSEC
  0
SECTION
  2
CLASSES
  0
CLASS
  1
ACDBDICTIONARYWDFLT
  2
AcDbDictionaryWithDefault
  3
ObjectDBX Classes
 90
        0
280
     0
281
     0
  0
CLASS
  1
MATERIAL
  2
AcDbMaterial
  3
ObjectDBX Classes
 90
     1153
280
     0
281
     0
  0
CLASS
  1
VISUALSTYLE
  2
AcDbVisualStyle
  3
ObjectDBX Classes
 90
     4095
280
     0
281
     0
  0
CLASS
  1
SCALE
  2
AcDbScale
  3
ObjectDBX Classes
 90
     1153
280
     0
281
     0
  0
CLASS
  1
TABLESTYLE
  2
AcDbTableStyle
  3
ObjectDBX Classes
 90
     4095
280
     0
281
     0
  0
CLASS
  1
MLEADERSTYLE
  2
AcDbMLeaderStyle
  3
ACDB_MLEADERSTYLE_CLASS
 90
     4095
280
     0
281
     0
  0
CLASS
  1
VLO-VL
  2
vlo_VL
  3
VL|AutoLISP based application
 90
      129
280
     0
281
     0
  0
CLASS
  1
DICTIONARYVAR
  2
AcDbDictionaryVar
  3
ObjectDBX Classes
 90
        0
280
     0
281
     0
  0
CLASS
  1
CELLSTYLEMAP
  2
AcDbCellStyleMap
  3
ObjectDBX Classes
 90
     1152
280
     0
281
     0
  0
CLASS
  1
DIMASSOC
  2
AcDbDimAssoc
  3
"AcDbDimAssoc|Product Desc:     AcDim ARX App For Dimension|Company:          Autodesk, Inc.|WEB Address:      www.autodesk.com"
 90
        0
280
     0
281
     0
  0
CLASS
  1
SORTENTSTABLE
  2
AcDbSortentsTable
  3
ObjectDBX Classes
 90
        0
280
     0
281
     0
  0
CLASS
  1
ACDBPLACEHOLDER
  2
AcDbPlaceHolder
  3
ObjectDBX Classes
 90
        0
280
     0
281
     0
  0
CLASS
  1
LAYOUT
  2
AcDbLayout
  3
ObjectDBX Classes
 90
        0
280
     0
281
     0
  0
ENDSEC
  0
SECTION
  2
TABLES
  0
TABLE
  2
VPORT
  5
5F02
330
0
100
AcDbSymbolTable
 70
     1
  0
VPORT
  5
5F73
330
5F02
100
AcDbSymbolTableRecord
100
AcDbViewportTableRecord
  2
*ACTIVE
 70
     0
 10
0.0
 20
0.0
 11
1.0
 21
1.0
 12
1106.371464714176
 22
142.2920915542073
 13
0.0
 23
0.0
 14
0.5
 24
0.5
 15
0.5
 25
0.5
 16
0.0
 26
0.0
 36
1.0
 17
0.0
 27
0.0
 37
0.0
 40
98.65140528127254
 41
1.522756827048114
 42
50.0
 43
0.0
 44
0.0
 50
0.0
 51
0.0
 71
     0
 72
  1000
 73
     1
 74
     3
 75
     0
 76
     0
 77
     0
 78
     0
281
     0
 65
     1
110
0.0
120
0.0
130
0.0
111
1.0
121
0.0
131
0.0
112
0.0
122
1.0
132
0.0
 79
     0
146
0.0
  0
ENDTAB
  0
TABLE
  2
LTYPE
  5
5EFF
330
0
100
AcDbSymbolTable
 70
    11
  0
LTYPE
  5
5F5C
330
5EFF
100
AcDbSymbolTableRecord
100
AcDbLinetypeTableRecord
  2
ByBlock
 70
     0
  3

 72
    65
 73
     0
 40
0.0
  0
LTYPE
  5
5F5D
330
5EFF
100
AcDbSymbolTableRecord
100
AcDbLinetypeTableRecord
  2
ByLayer
 70
     0
  3

 72
    65
 73
     0
 40
0.0
  0
LTYPE
  5
5F5E
330
5EFF
100
AcDbSymbolTableRecord
100
AcDbLinetypeTableRecord
  2
CONTINUOUS
 70
     0
  3
Solid line
 72
    65
 73
     0
 40
0.0
  0
LTYPE
  5
5F74
330
5EFF
100
AcDbSymbolTableRecord
100
AcDbLinetypeTableRecord
  2
CENTER2
 70
     0
  3
Center (.5x) ___ _ ___ _ ___ _ ___ _ ___ _ ___
 72
    65
 73
     4
 40
28.575
 49
19.05
 74
     0
 49
-3.174999999999998
 74
     0
 49
3.174999999999998
 74
     0
 49
-3.174999999999998
 74
     0
  0
LTYPE
  5
5F75
330
5EFF
100
AcDbSymbolTableRecord
100
AcDbLinetypeTableRecord
  2
HIDDEN2
 70
     0
  3
Hidden (.5x) _ _ _ _ _ _ _ _ _ _ _ _ _ _ _ _ _
 72
    65
 73
     2
 40
4.762499999999998
 49
3.174999999999998
 74
     0
 49
-1.587499999999999
 74
     0
  0
ENDTAB
  0
TABLE
  2
LAYER
  5
5EFC
102
{ACAD_XDICTIONARY
360
61B7
102
}
330
0
100
AcDbSymbolTable
 70
    10
  0
LAYER
  5
5F56
102
{ACAD_XDICTIONARY
360
60F4
102
}
330
5EFC
100
AcDbSymbolTableRecord
100
AcDbLayerTableRecord
  2
0
 70
     0
 62
     7
  6
CONTINUOUS
370
    -3
390
5F09
  0
LAYER
  5
5F72
102
{ACAD_XDICTIONARY
360
60F6
102
}
330
5EFC
100
AcDbSymbolTableRecord
100
AcDbLayerTableRecord
  2
标注
 70
     0
 62
    80
  6
CONTINUOUS
370
    -3
390
5F09
  0
LAYER
  5
5F7D
102
{ACAD_XDICTIONARY
360
60F8
102
}
330
5EFC
100
AcDbSymbolTableRecord
100
AcDbLayerTableRecord
  2
中心线
 70
     0
 62
     1
  6
CENTER2
370
    -3
390
5F09
  0
LAYER
  5
5F7E
102
{ACAD_XDICTIONARY
360
60FA
102
}
330
5EFC
100
AcDbSymbolTableRecord
100
AcDbLayerTableRecord
  2
虚线
 70
     0
 62
     4
  6
HIDDEN2
370
    -3
390
5F09
  0
LAYER
  5
5F7F
330
5EFC
100
AcDbSymbolTableRecord
100
AcDbLayerTableRecord
  2
DEFPOINTS
 70
     0
 62
     7
  6
CONTINUOUS
290
     0
370
    -3
390
5F09
  0
ENDTAB
  0
TABLE
  2
STYLE
  5
5EFD
330
0
100
AcDbSymbolTable
 70
     3
  0
STYLE
  5
5F57
330
5EFD
100
AcDbSymbolTableRecord
100
AcDbTextStyleTableRecord
  2
STANDARD
 70
     0
 40
0.0
 41
1.0
 50
0.0
 71
     0
 42
0.2
  3
arial.ttf
  4

1001
ACAD
1000
Arial
1071
       34
  0
ENDTAB
  0
TABLE
  2
VIEW
  5
5F00
330
0
100
AcDbSymbolTable
 70
     0
  0
ENDTAB
  0
TABLE
  2
UCS
  5
5F01
330
0
100
AcDbSymbolTable
 70
     0
  0
ENDTAB
  0
TABLE
  2
APPID
  5
5F03
330
0
100
AcDbSymbolTable
 70
    29
  0
APPID
  5
5F58
330
5F03
100
AcDbSymbolTableRecord
100
AcDbRegAppTableRecord
  2
ACAD
 70
     0
  0
APPID
  5
5F5F
330
5F03
100
AcDbSymbolTableRecord
100
AcDbRegAppTableRecord
  2
ACADANNOTATIVE
 70
     0
  0
APPID
  5
5F69
330
5F03
100
AcDbSymbolTableRecord
100
AcDbRegAppTableRecord
  2
ACAD_MLEADERVER
 70
     0
  0
APPID
  5
5F84
330
5F03
100
AcDbSymbolTableRecord
100
AcDbRegAppTableRecord
  2
ACAECLAYERSTANDARD
 70
     0
  0
APPID
  5
5F85
330
5F03
100
AcDbSymbolTableRecord
100
AcDbRegAppTableRecord
  2
ACAD_DSTYLE_DIMEXT_LENGTH
 70
     0
  0
APPID
  5
5F86
330
5F03
100
AcDbSymbolTableRecord
100
AcDbRegAppTableRecord
  2
ACAD_DSTYLE_DIMEXT_ENABLED
 70
     0
  0
APPID
  5
5F87
330
5F03
100
AcDbSymbolTableRecord
100
AcDbRegAppTableRecord
  2
ACAD_DSTYLE_DIMJOGGED_JOGA
 70
     0
  0
APPID
  5
5F88
330
5F03
100
AcDbSymbolTableRecord
100
AcDbRegAppTableRecord
  2
ACAD_DSTYLE_DIMARC_LENGTH_
 70
     0
  0
APPID
  5
5F89
330
5F03
100
AcDbSymbolTableRecord
100
AcDbRegAppTableRecord
  2
ACAD_PSEXT
 70
     0
  0
APPID
  5
5F8A
330
5F03
100
AcDbSymbolTableRecord
100
AcDbRegAppTableRecord
  2
MCAD_NO_VIS
 70
     0
  0
APPID
  5
5F8B
330
5F03
100
AcDbSymbolTableRecord
100
AcDbRegAppTableRecord
  2
ACAD_TEMP_GRAPHIC
 70
     0
  0
APPID
  5
5F8C
330
5F03
100
AcDbSymbolTableRecord
100
AcDbRegAppTableRecord
  2
AD_DRAW
 70
     0
  0
APPID
  5
5F8D
330
5F03
100
AcDbSymbolTableRecord
100
AcDbRegAppTableRecord
  2
ACATTRIBSERVICES
 70
     0
  0
APPID
  5
5F8E
330
5F03
100
AcDbSymbolTableRecord
100
AcDbRegAppTableRecord
  2
DESIGNERASSEMBLIES
 70
     0
  0
APPID
  5
5F8F
330
5F03
100
AcDbSymbolTableRecord
100
AcDbRegAppTableRecord
  2
ACADM_DIM_EDIT
 70
     0
  0
APPID
  5
5F90
330
5F03
100
AcDbSymbolTableRecord
100
AcDbRegAppTableRecord
  2
AMDT_DM_ADJ
 70
     0
  0
APPID
  5
5F91
330
5F03
100
AcDbSymbolTableRecord
100
AcDbRegAppTableRecord
  2
ACAD_DSTYLE_DIMJAG
 70
     0
  0
APPID
  5
5F92
330
5F03
100
AcDbSymbolTableRecord
100
AcDbRegAppTableRecord
  2
ACAD_DSTYLE_DIMBREAK
 70
     0
  0
APPID
  5
5F93
330
5F03
100
AcDbSymbolTableRecord
100
AcDbRegAppTableRecord
  2
ACAD_DSTYLE_DIMTALN
 70
     0
  0
APPID
  5
5F94
330
5F03
100
AcDbSymbolTableRecord
100
AcDbRegAppTableRecord
  2
GENIUS_GENODEF_13
 70
     0
  0
APPID
  5
5F95
330
5F03
100
AcDbSymbolTableRecord
100
AcDbRegAppTableRecord
  2
GENIUS_GENOBJ-N-FIL_13
 70
     0
  0
APPID
  5
5F96
330
5F03
100
AcDbSymbolTableRecord
100
AcDbRegAppTableRecord
  2
ACAD_EXEMPT_FROM_CAD_STANDARDS
 70
     0
  0
APPID
  5
5F97
330
5F03
100
AcDbSymbolTableRecord
100
AcDbRegAppTableRecord
  2
ACAD_DSTYLE_DIM_LINETYPE
 70
     0
  0
APPID
  5
5F98
330
5F03
100
AcDbSymbolTableRecord
100
AcDbRegAppTableRecord
  2
ACAD_DSTYLE_DIM_EXT1_LINETYPE
 70
     0
  0
APPID
  5
5F99
330
5F03
100
AcDbSymbolTableRecord
100
AcDbRegAppTableRecord
  2
ACAD_DSTYLE_DIM_EXT2_LINETYPE
 70
     0
  0
APPID
  5
5F9A
330
5F03
100
AcDbSymbolTableRecord
100
AcDbRegAppTableRecord
  2
ACAD_DSTYLE_DIMRADIAL_EXTENSION
 70
     0
  0
APPID
  5
6488
330
5F03
100
AcDbSymbolTableRecord
100
AcDbRegAppTableRecord
  2
AcadAnnoPO
 70
     0
  0
APPID
  5
6F89
330
5F03
100
AcDbSymbolTableRecord
100
AcDbRegAppTableRecord
  2
GENIUS_GENFIL_13
 70
     0
  0
APPID
  5
6F8A
330
5F03
100
AcDbSymbolTableRecord
100
AcDbRegAppTableRecord
  2
GENIUS_GENOBJ-N-CHA_13
 70
     0
  0
ENDTAB
  0
TABLE
  2
DIMSTYLE
  5
5F04
330
0
100
AcDbSymbolTable
 70
    26
100
AcDbDimStyleTable
 71
     2
340
5F9B
340
5F59
  0
DIMSTYLE
105
5F59
330
5F04
100
AcDbSymbolTableRecord
100
AcDbDimStyleTableRecord
  2
STANDARD
 70
     0
 41
0.65
 73
     0
 74
     0
140
0.65
176
     3
177
     3
178
     3
271
     3
272
     3
276
     2
277
     5
279
     2
284
     8
285
     8
286
     8
340
5F57
371
    13
372
    13
1001
ACAD_DSTYLE_DIMJAG
1070
   388
1040
1.5
1001
ACAD_DSTYLE_DIMTALN
1070
   392
1070
     0
1001
ACAD_DSTYLE_DIM_LINETYPE
1070
   380
1005
5F5E
1001
ACAD_DSTYLE_DIM_EXT1_LINETYPE
1070
   381
1005
5F5E
1001
ACAD_DSTYLE_DIM_EXT2_LINETYPE
1070
   382
1005
5F5E
  0
DIMSTYLE
105
5F9B
102
{ACAD_REACTORS
330
7650
330
765E
330
766C
330
767A
330
7688
330
7696
330
76A4
330
76B2
330
76BC
330
76EA
330
770C
330
7744
330
774E
330
7764
330
7772
330
7780
330
779A
330
77A4
330
77AE
102
}
330
5F04
100
AcDbSymbolTableRecord
100
AcDbDimStyleTableRecord
  2
副本STANDARD
 70
     0
  3
"
  4
"
 41
0.65
 42
0.88
 43
0.015
 44
0.32
 73
     0
 74
     0
 78
     8
140
0.65
143
0.03937
147
0.3
171
     1
172
     1
176
   256
177
   256
178
   256
271
     3
272
     3
274
     1
276
     2
277
     5
279
     2
284
     8
285
     8
286
     8
340
5F57
1001
ACAD_DSTYLE_DIMJAG
1070
   388
1040
1.5
1001
ACAD_DSTYLE_DIMTALN
1070
   392
1070
     0
  0
ENDTAB
  0
TABLE
  2
BLOCK_RECORD
  5
5EFB
330
0
100
AcDbSymbolTable
 70
   295
  0
BLOCK_RECORD
  5
5F6E
102
{ACAD_XDICTIONARY
360
654F
102
}
330
5EFB
100
AcDbSymbolTableRecord
100
AcDbBlockTableRecord
  2
*Model_Space
340
5F71
  0
BLOCK_RECORD
  5
5F6A
330
5EFB
100
AcDbSymbolTableRecord
100
AcDbBlockTableRecord
  2
*Paper_Space
340
5F6D
  0
BLOCK_RECORD
  5
7651
330
5EFB
100
AcDbSymbolTableRecord
100
AcDbBlockTableRecord
  2
*D276
340
0
  0
BLOCK_RECORD
  5
765F
330
5EFB
100
AcDbSymbolTableRecord
100
AcDbBlockTableRecord
  2
*D277
340
0
  0
BLOCK_RECORD
  5
766D
330
5EFB
100
AcDbSymbolTableRecord
100
AcDbBlockTableRecord
  2
*D278
340
0
  0
BLOCK_RECORD
  5
767B
330
5EFB
100
AcDbSymbolTableRecord
100
AcDbBlockTableRecord
  2
*D279
340
0
  0
BLOCK_RECORD
  5
7689
330
5EFB
100
AcDbSymbolTableRecord
100
AcDbBlockTableRecord
  2
*D280
340
0
  0
BLOCK_RECORD
  5
7697
330
5EFB
100
AcDbSymbolTableRecord
100
AcDbBlockTableRecord
  2
*D281
340
0
  0
BLOCK_RECORD
  5
76A5
330
5EFB
100
AcDbSymbolTableRecord
100
AcDbBlockTableRecord
  2
*D282
340
0
  0
BLOCK_RECORD
  5
76B3
330
5EFB
100
AcDbSymbolTableRecord
100
AcDbBlockTableRecord
  2
*D283
340
0
  0
BLOCK_RECORD
  5
76BD
330
5EFB
100
AcDbSymbolTableRecord
100
AcDbBlockTableRecord
  2
*D284
340
0
  0
BLOCK_RECORD
  5
76EB
330
5EFB
100
AcDbSymbolTableRecord
100
AcDbBlockTableRecord
  2
*D285
340
0
  0
BLOCK_RECORD
  5
770D
330
5EFB
100
AcDbSymbolTableRecord
100
AcDbBlockTableRecord
  2
*D286
340
0
  0
BLOCK_RECORD
  5
7745
330
5EFB
100
AcDbSymbolTableRecord
100
AcDbBlockTableRecord
  2
*D287
340
0
  0
BLOCK_RECORD
  5
774F
330
5EFB
100
AcDbSymbolTableRecord
100
AcDbBlockTableRecord
  2
*D288
340
0
  0
BLOCK_RECORD
  5
7765
330
5EFB
100
AcDbSymbolTableRecord
100
AcDbBlockTableRecord
  2
*D289
340
0
  0
BLOCK_RECORD
  5
7773
330
5EFB
100
AcDbSymbolTableRecord
100
AcDbBlockTableRecord
  2
*D290
340
0
  0
BLOCK_RECORD
  5
7781
330
5EFB
100
AcDbSymbolTableRecord
100
AcDbBlockTableRecord
  2
*D291
340
0
  0
BLOCK_RECORD
  5
779B
330
5EFB
100
AcDbSymbolTableRecord
100
AcDbBlockTableRecord
  2
*D292
340
0
  0
BLOCK_RECORD
  5
77A5
330
5EFB
100
AcDbSymbolTableRecord
100
AcDbBlockTableRecord
  2
*D293
340
0
  0
BLOCK_RECORD
  5
77AF
330
5EFB
100
AcDbSymbolTableRecord
100
AcDbBlockTableRecord
  2
*D294
340
0
  0
ENDTAB
  0
ENDSEC
  0
SECTION
  2
BLOCKS
  0
BLOCK
  5
5F6F
330
5F6E
100
AcDbEntity
  8
0
100
AcDbBlockBegin
  2
*Model_Space
 70
     0
 10
0.0
 20
0.0
 30
0.0
  3
*Model_Space
  1

  0
ENDBLK
  5
5F70
330
5F6E
100
AcDbEntity
  8
0
100
AcDbBlockEnd
  0
BLOCK
  5
5F6B
330
5F6A
100
AcDbEntity
 67
     1
  8
0
100
AcDbBlockBegin
  2
*Paper_Space
 70
     0
 10
0.0
 20
0.0
 30
0.0
  3
*Paper_Space
  1

  0
ENDBLK
  5
5F6C
330
5F6A
100
AcDbEntity
 67
     1
  8
0
100
AcDbBlockEnd
  0
BLOCK
  5
7652
330
7651
100
AcDbEntity
  8
0
100
AcDbBlockBegin
  2
*D276
 70
     1
 10
0.0
 20
0.0
 30
0.0
  3
*D276
  1

  0
LINE
  5
77CA
330
7651
100
AcDbEntity
  8
标注
370
    -2
100
AcDbLine
 10
1094.219037908409
 20
138.162998433621
 30
0.0
 11
1094.219037908409
 21
135.1913252291895
 31
0.0
  0
LINE
  5
77CB
330
7651
100
AcDbEntity
  8
标注
370
    -2
100
AcDbLine
 10
1112.219037908332
 20
138.162998433621
 30
0.0
 11
1112.219037908332
 21
135.1913252291895
 31
0.0
  0
LINE
  5
77CC
330
7651
100
AcDbEntity
  8
标注
370
    -2
100
AcDbLine
 10
1094.869037908409
 20
135.5113252291895
 30
0.0
 11
1102.323574061167
 21
135.5113252291895
 31
0.0
  0
LINE
  5
77CD
330
7651
100
AcDbEntity
  8
标注
370
    -2
100
AcDbLine
 10
1111.569037908331
 20
135.5113252291895
 30
0.0
 11
1104.114501755574
 21
135.5113252291895
 31
0.0
  0
SOLID
  5
77CE
330
7651
100
AcDbEntity
  8
标注
100
AcDbTrace
 10
1094.869037908409
 20
135.6196585625228
 30
0.0
 11
1094.869037908409
 21
135.4029918958562
 31
0.0
 12
1094.219037908409
 22
135.5113252291895
 32
0.0
 13
1094.219037908409
 23
135.5113252291895
 33
0.0
  0
SOLID
  5
77CF
330
7651
100
AcDbEntity
  8
标注
100
AcDbTrace
 10
1111.569037908331
 20
135.6196585625228
 30
0.0
 11
1111.569037908331
 21
135.4029918958562
 31
0.0
 12
1112.219037908332
 22
135.5113252291895
 32
0.0
 13
1112.219037908332
 23
135.5113252291895
 33
0.0
  0
MTEXT
  5
77D0
330
7651
100
AcDbEntity
  8
标注
100
AcDbMText
 10
1103.21903790837
 20
135.5113252291895
 30
0.0
 40
0.65
 41
0.0
 71
     5
 72
     1
  1
\A1;18"
 73
     1
 44
1.0
1001
ACAD
1000
MTEXTBEGIN
1070
    73
1070
     1
1070
    44
1040
1.0
1070
    74
1070
     0
1000
MTEXTEND
  0
POINT
  5
77D1
330
7651
100
AcDbEntity
  8
DEFPOINTS
 62
     0
100
AcDbPoint
 10
1094.219037908409
 20
139.0429984336211
 30
0.0
  0
POINT
  5
77D2
330
7651
100
AcDbEntity
  8
DEFPOINTS
 62
     0
100
AcDbPoint
 10
1112.219037908332
 20
139.0429984336211
 30
0.0
  0
POINT
  5
77D3
330
7651
100
AcDbEntity
  8
DEFPOINTS
 62
     0
100
AcDbPoint
 10
1112.219037908332
 20
135.5113252291895
 30
0.0
  0
ENDBLK
  5
7653
330
7651
100
AcDbEntity
  8
0
100
AcDbBlockEnd
  0
BLOCK
  5
7660
330
765F
100
AcDbEntity
  8
0
100
AcDbBlockBegin
  2
*D277
 70
     1
 10
0.0
 20
0.0
 30
0.0
  3
*D277
  1

  0
LINE
  5
77D4
330
765F
100
AcDbEntity
  8
标注
370
    -2
100
AcDbLine
 10
1113.219037908341
 20
138.162998433621
 30
0.0
 11
1113.219037908341
 21
135.1913252291895
 31
0.0
  0
LINE
  5
77D5
330
765F
100
AcDbEntity
  8
标注
370
    -2
100
AcDbLine
 10
1124.219037908293
 20
138.162998433621
 30
0.0
 11
1124.219037908293
 21
135.1913252291895
 31
0.0
  0
LINE
  5
77D6
330
765F
100
AcDbEntity
  8
标注
370
    -2
100
AcDbLine
 10
1113.869037908341
 20
135.5113252291895
 30
0.0
 11
1117.823574061114
 21
135.5113252291895
 31
0.0
  0
LINE
  5
77D7
330
765F
100
AcDbEntity
  8
标注
370
    -2
100
AcDbLine
 10
1123.569037908293
 20
135.5113252291895
 30
0.0
 11
1119.61450175552
 21
135.5113252291895
 31
0.0
  0
SOLID
  5
77D8
330
765F
100
AcDbEntity
  8
标注
100
AcDbTrace
 10
1113.869037908341
 20
135.6196585625228
 30
0.0
 11
1113.869037908341
 21
135.4029918958562
 31
0.0
 12
1113.219037908341
 22
135.5113252291895
 32
0.0
 13
1113.219037908341
 23
135.5113252291895
 33
0.0
  0
SOLID
  5
77D9
330
765F
100
AcDbEntity
  8
标注
100
AcDbTrace
 10
1123.569037908293
 20
135.6196585625228
 30
0.0
 11
1123.569037908293
 21
135.4029918958562
 31
0.0
 12
1124.219037908293
 22
135.5113252291895
 32
0.0
 13
1124.219037908293
 23
135.5113252291895
 33
0.0
  0
MTEXT
  5
77DA
330
765F
100
AcDbEntity
  8
标注
100
AcDbMText
 10
1118.719037908317
 20
135.5113252291895
 30
0.0
 40
0.65
 41
0.0
 71
     5
 72
     1
  1
\A1;11"
 73
     1
 44
1.0
1001
ACAD
1000
MTEXTBEGIN
1070
    73
1070
     1
1070
    44
1040
1.0
1070
    74
1070
     0
1000
MTEXTEND
  0
POINT
  5
77DB
330
765F
100
AcDbEntity
  8
DEFPOINTS
 62
     0
100
AcDbPoint
 10
1113.219037908341
 20
139.0429984336211
 30
0.0
  0
POINT
  5
77DC
330
765F
100
AcDbEntity
  8
DEFPOINTS
 62
     0
100
AcDbPoint
 10
1124.219037908293
 20
139.0429984336211
 30
0.0
  0
POINT
  5
77DD
330
765F
100
AcDbEntity
  8
DEFPOINTS
 62
     0
100
AcDbPoint
 10
1124.219037908293
 20
135.5113252291895
 30
0.0
  0
ENDBLK
  5
7661
330
765F
100
AcDbEntity
  8
0
100
AcDbBlockEnd
  0
BLOCK
  5
766E
330
766D
100
AcDbEntity
  8
0
100
AcDbBlockBegin
  2
*D278
 70
     1
 10
0.0
 20
0.0
 30
0.0
  3
*D278
  1

  0
LINE
  5
77DE
330
766D
100
AcDbEntity
  8
标注
370
    -2
100
AcDbLine
 10
1093.732738695828
 20
138.6492976462309
 30
0.0
 11
1090.728333272927
 21
138.6492976462309
 31
0.0
  0
LINE
  5
77DF
330
766D
100
AcDbEntity
  8
标注
370
    -2
100
AcDbLine
 10
1093.732738695828
 20
156.6492976461727
 30
0.0
 11
1090.728333272927
 21
156.6492976461727
 31
0.0
  0
LINE
  5
77E0
330
766D
100
AcDbEntity
  8
标注
370
    -2
100
AcDbLine
 10
1091.048333272927
 20
139.2992976462309
 30
0.0
 11
1091.048333272927
 21
146.7538337989986
 31
0.0
  0
LINE
  5
77E1
330
766D
100
AcDbEntity
  8
标注
370
    -2
100
AcDbLine
 10
1091.048333272927
 20
155.9992976461727
 30
0.0
 11
1091.048333272927
 21
148.5447614934051
 31
0.0
  0
SOLID
  5
77E2
330
766D
100
AcDbEntity
  8
标注
100
AcDbTrace
 10
1090.939999939593
 20
139.2992976462309
 30
0.0
 11
1091.15666660626
 21
139.2992976462309
 31
0.0
 12
1091.048333272927
 22
138.6492976462309
 32
0.0
 13
1091.048333272927
 23
138.6492976462309
 33
0.0
  0
SOLID
  5
77E3
330
766D
100
AcDbEntity
  8
标注
100
AcDbTrace
 10
1090.939999939593
 20
155.9992976461727
 30
0.0
 11
1091.15666660626
 21
155.9992976461727
 31
0.0
 12
1091.048333272927
 22
156.6492976461727
 32
0.0
 13
1091.048333272927
 23
156.6492976461727
 33
0.0
  0
MTEXT
  5
77E4
330
766D
100
AcDbEntity
  8
标注
100
AcDbMText
 10
1091.048333272927
 20
147.649297646202
 30
0.0
 40
0.65
 41
0.0
 71
     5
 72
     1
  1
\A1;18"
 11
0.0000000000000001
 21
1.0
 31
0.0
 73
     1
 44
1.0
1001
ACAD
1000
MTEXTBEGIN
1070
    73
1070
     1
1070
    44
1040
1.0
1070
    74
1070
     0
1000
MTEXTEND
  0
POINT
  5
77E5
330
766D
100
AcDbEntity
  8
DEFPOINTS
 62
     0
100
AcDbPoint
 10
1094.612738695828
 20
138.6492976462309
 30
0.0
  0
POINT
  5
77E6
330
766D
100
AcDbEntity
  8
DEFPOINTS
 62
     0
100
AcDbPoint
 10
1094.612738695828
 20
156.6492976461727
 30
0.0
  0
POINT
  5
77E7
330
766D
100
AcDbEntity
  8
DEFPOINTS
 62
     0
100
AcDbPoint
 10
1091.048333272927
 20
156.6492976461727
 30
0.0
  0
ENDBLK
  5
766F
330
766D
100
AcDbEntity
  8
0
100
AcDbBlockEnd
  0
BLOCK
  5
767C
330
767B
100
AcDbEntity
  8
0
100
AcDbBlockBegin
  2
*D279
 70
     1
 10
0.0
 20
0.0
 30
0.0
  3
*D279
  1

  0
LINE
  5
77E8
330
767B
100
AcDbEntity
  8
标注
370
    -2
100
AcDbLine
 10
1093.339037908409
 20
137.6492976462309
 30
0.0
 11
1088.629100061997
 21
137.6492976462309
 31
0.0
  0
LINE
  5
77E9
330
767B
100
AcDbEntity
  8
标注
370
    -2
100
AcDbLine
 10
1093.339037908296
 20
157.6492976461445
 30
0.0
 11
1088.629100061997
 21
157.6492976461445
 31
0.0
  0
LINE
  5
77EA
330
767B
100
AcDbEntity
  8
标注
370
    -2
100
AcDbLine
 10
1088.949100061997
 20
138.2992976462309
 30
0.0
 11
1088.949100061997
 21
146.7176980554646
 31
0.0
  0
LINE
  5
77EB
330
767B
100
AcDbEntity
  8
标注
370
    -2
100
AcDbLine
 10
1088.949100061997
 20
156.9992976461445
 30
0.0
 11
1088.949100061997
 21
148.5808972369108
 31
0.0
  0
SOLID
  5
77EC
330
767B
100
AcDbEntity
  8
标注
100
AcDbTrace
 10
1088.840766728663
 20
138.2992976462309
 30
0.0
 11
1089.05743339533
 21
138.2992976462309
 31
0.0
 12
1088.949100061997
 22
137.6492976462309
 32
0.0
 13
1088.949100061997
 23
137.6492976462309
 33
0.0
  0
SOLID
  5
77ED
330
767B
100
AcDbEntity
  8
标注
100
AcDbTrace
 10
1088.840766728663
 20
156.9992976461445
 30
0.0
 11
1089.05743339533
 21
156.9992976461445
 31
0.0
 12
1088.949100061997
 22
157.6492976461445
 32
0.0
 13
1088.949100061997
 23
157.6492976461445
 33
0.0
  0
MTEXT
  5
77EE
330
767B
100
AcDbEntity
  8
标注
100
AcDbMText
 10
1088.949100061997
 20
147.6492976461879
 30
0.0
 40
0.65
 41
0.0
 71
     5
 72
     1
  1
\A1;20"
 11
0.0000000000000001
 21
1.0
 31
0.0
 73
     1
 44
1.0
1001
ACAD
1000
MTEXTBEGIN
1070
    73
1070
     1
1070
    44
1040
1.0
1070
    74
1070
     0
1000
MTEXTEND
  0
POINT
  5
77EF
330
767B
100
AcDbEntity
  8
DEFPOINTS
 62
     0
100
AcDbPoint
 10
1094.219037908409
 20
137.6492976462309
 30
0.0
  0
POINT
  5
77F0
330
767B
100
AcDbEntity
  8
DEFPOINTS
 62
     0
100
AcDbPoint
 10
1094.219037908296
 20
157.6492976461445
 30
0.0
  0
POINT
  5
77F1
330
767B
100
AcDbEntity
  8
DEFPOINTS
 62
     0
100
AcDbPoint
 10
1088.949100061997
 20
157.6492976461445
 30
0.0
  0
ENDBLK
  5
767D
330
767B
100
AcDbEntity
  8
0
100
AcDbBlockEnd
  0
BLOCK
  5
768A
330
7689
100
AcDbEntity
  8
0
100
AcDbBlockBegin
  2
*D280
 70
     1
 10
0.0
 20
0.0
 30
0.0
  3
*D280
  1

  0
LINE
  5
77F2
330
7689
100
AcDbEntity
  8
标注
370
    -2
100
AcDbLine
 10
1124.705337120903
 20
138.6492976462309
 30
0.0
 11
1127.230265449214
 21
138.6492976462309
 31
0.0
  0
LINE
  5
77F3
330
7689
100
AcDbEntity
  8
标注
370
    -2
100
AcDbLine
 10
1124.705337120903
 20
153.6492976461727
 30
0.0
 11
1127.230265449214
 21
153.6492976461727
 31
0.0
  0
LINE
  5
77F4
330
7689
100
AcDbEntity
  8
标注
370
    -2
100
AcDbLine
 10
1126.910265449214
 20
139.2992976462309
 30
0.0
 11
1126.910265449214
 21
145.2538337989986
 31
0.0
  0
LINE
  5
77F5
330
7689
100
AcDbEntity
  8
标注
370
    -2
100
AcDbLine
 10
1126.910265449214
 20
152.9992976461727
 30
0.0
 11
1126.910265449214
 21
147.0447614934051
 31
0.0
  0
SOLID
  5
77F6
330
7689
100
AcDbEntity
  8
标注
100
AcDbTrace
 10
1126.801932115881
 20
139.2992976462309
 30
0.0
 11
1127.018598782548
 21
139.2992976462309
 31
0.0
 12
1126.910265449214
 22
138.6492976462309
 32
0.0
 13
1126.910265449214
 23
138.6492976462309
 33
0.0
  0
SOLID
  5
77F7
330
7689
100
AcDbEntity
  8
标注
100
AcDbTrace
 10
1126.801932115881
 20
152.9992976461727
 30
0.0
 11
1127.018598782548
 21
152.9992976461727
 31
0.0
 12
1126.910265449214
 22
153.6492976461727
 32
0.0
 13
1126.910265449214
 23
153.6492976461727
 33
0.0
  0
MTEXT
  5
77F8
330
7689
100
AcDbEntity
  8
标注
100
AcDbMText
 10
1126.910265449214
 20
146.149297646202
 30
0.0
 40
0.65
 41
0.0
 71
     5
 72
     1
  1
\A1;15"
 11
0.0000000000000001
 21
1.0
 31
0.0
 73
     1
 44
1.0
1001
ACAD
1000
MTEXTBEGIN
1070
    73
1070
     1
1070
    44
1040
1.0
1070
    74
1070
     0
1000
MTEXTEND
  0
POINT
  5
77F9
330
7689
100
AcDbEntity
  8
DEFPOINTS
 62
     0
100
AcDbPoint
 10
1123.825337120903
 20
138.6492976462309
 30
0.0
  0
POINT
  5
77FA
330
7689
100
AcDbEntity
  8
DEFPOINTS
 62
     0
100
AcDbPoint
 10
1123.825337120903
 20
153.6492976461727
 30
0.0
  0
POINT
  5
77FB
330
7689
100
AcDbEntity
  8
DEFPOINTS
 62
     0
100
AcDbPoint
 10
1126.910265449214
 20
153.6492976461727
 30
0.0
  0
ENDBLK
  5
768B
330
7689
100
AcDbEntity
  8
0
100
AcDbBlockEnd
  0
BLOCK
  5
7698
330
7697
100
AcDbEntity
  8
0
100
AcDbBlockBegin
  2
*D281
 70
     1
 10
0.0
 20
0.0
 30
0.0
  3
*D281
  1

  0
LINE
  5
77FC
330
7697
100
AcDbEntity
  8
标注
370
    -2
100
AcDbLine
 10
1125.099037908293
 20
137.6492976462309
 30
0.0
 11
1128.947244791557
 21
137.6492976462309
 31
0.0
  0
LINE
  5
77FD
330
7697
100
AcDbEntity
  8
标注
370
    -2
100
AcDbLine
 10
1125.099037908293
 20
154.6492976461727
 30
0.0
 11
1128.947244791557
 21
154.6492976461727
 31
0.0
  0
LINE
  5
77FE
330
7697
100
AcDbEntity
  8
标注
370
    -2
100
AcDbLine
 10
1128.627244791557
 20
138.2992976462309
 30
0.0
 11
1128.627244791557
 21
145.2538337989986
 31
0.0
  0
LINE
  5
77FF
330
7697
100
AcDbEntity
  8
标注
370
    -2
100
AcDbLine
 10
1128.627244791557
 20
153.9992976461727
 30
0.0
 11
1128.627244791557
 21
147.0447614934051
 31
0.0
  0
SOLID
  5
7800
330
7697
100
AcDbEntity
  8
标注
100
AcDbTrace
 10
1128.518911458224
 20
138.2992976462309
 30
0.0
 11
1128.735578124891
 21
138.2992976462309
 31
0.0
 12
1128.627244791557
 22
137.6492976462309
 32
0.0
 13
1128.627244791557
 23
137.6492976462309
 33
0.0
  0
SOLID
  5
7801
330
7697
100
AcDbEntity
  8
标注
100
AcDbTrace
 10
1128.518911458224
 20
153.9992976461727
 30
0.0
 11
1128.735578124891
 21
153.9992976461727
 31
0.0
 12
1128.627244791557
 22
154.6492976461727
 32
0.0
 13
1128.627244791557
 23
154.6492976461727
 33
0.0
  0
MTEXT
  5
7802
330
7697
100
AcDbEntity
  8
标注
100
AcDbMText
 10
1128.627244791557
 20
146.149297646202
 30
0.0
 40
0.65
 41
0.0
 71
     5
 72
     1
  1
\A1;17"
 11
0.0000000000000001
 21
1.0
 31
0.0
 73
     1
 44
1.0
1001
ACAD
1000
MTEXTBEGIN
1070
    73
1070
     1
1070
    44
1040
1.0
1070
    74
1070
     0
1000
MTEXTEND
  0
POINT
  5
7803
330
7697
100
AcDbEntity
  8
DEFPOINTS
 62
     0
100
AcDbPoint
 10
1124.219037908293
 20
137.6492976462309
 30
0.0
  0
POINT
  5
7804
330
7697
100
AcDbEntity
  8
DEFPOINTS
 62
     0
100
AcDbPoint
 10
1124.219037908293
 20
154.6492976461727
 30
0.0
  0
POINT
  5
7805
330
7697
100
AcDbEntity
  8
DEFPOINTS
 62
     0
100
AcDbPoint
 10
1128.627244791557
 20
154.6492976461727
 30
0.0
  0
ENDBLK
  5
7699
330
7697
100
AcDbEntity
  8
0
100
AcDbBlockEnd
  0
BLOCK
  5
76A6
330
76A5
100
AcDbEntity
  8
0
100
AcDbBlockBegin
  2
*D282
 70
     1
 10
0.0
 20
0.0
 30
0.0
  3
*D282
  1

  0
LINE
  5
7806
330
76A5
100
AcDbEntity
  8
标注
370
    -2
100
AcDbLine
 10
1093.219037908409
 20
137.7692976462309
 30
0.0
 11
1093.219037908409
 21
133.3930756036228
 31
0.0
  0
LINE
  5
7807
330
76A5
100
AcDbEntity
  8
标注
370
    -2
100
AcDbLine
 10
1125.219037908293
 20
137.7692976462309
 30
0.0
 11
1125.219037908293
 21
133.3930756036228
 31
0.0
  0
LINE
  5
7808
330
76A5
100
AcDbEntity
  8
标注
370
    -2
100
AcDbLine
 10
1093.869037908409
 20
133.7130756036228
 30
0.0
 11
1108.293202301257
 21
133.7130756036228
 31
0.0
  0
LINE
  5
7809
330
76A5
100
AcDbEntity
  8
标注
370
    -2
100
AcDbLine
 10
1124.569037908293
 20
133.7130756036228
 30
0.0
 11
1110.144873515445
 21
133.7130756036228
 31
0.0
  0
SOLID
  5
780A
330
76A5
100
AcDbEntity
  8
标注
100
AcDbTrace
 10
1093.869037908409
 20
133.8214089369561
 30
0.0
 11
1093.869037908409
 21
133.6047422702895
 31
0.0
 12
1093.219037908409
 22
133.7130756036228
 32
0.0
 13
1093.219037908409
 23
133.7130756036228
 33
0.0
  0
SOLID
  5
780B
330
76A5
100
AcDbEntity
  8
标注
100
AcDbTrace
 10
1124.569037908293
 20
133.8214089369561
 30
0.0
 11
1124.569037908293
 21
133.6047422702895
 31
0.0
 12
1125.219037908293
 22
133.7130756036228
 32
0.0
 13
1125.219037908293
 23
133.7130756036228
 33
0.0
  0
MTEXT
  5
780C
330
76A5
100
AcDbEntity
  8
标注
100
AcDbMText
 10
1109.219037908351
 20
133.7130756036228
 30
0.0
 40
0.65
 41
0.0
 71
     5
 72
     1
  1
\A1;32"
 73
     1
 44
1.0
1001
ACAD
1000
MTEXTBEGIN
1070
    73
1070
     1
1070
    44
1040
1.0
1070
    74
1070
     0
1000
MTEXTEND
  0
POINT
  5
780D
330
76A5
100
AcDbEntity
  8
DEFPOINTS
 62
     0
100
AcDbPoint
 10
1093.219037908409
 20
138.6492976462309
 30
0.0
  0
POINT
  5
780E
330
76A5
100
AcDbEntity
  8
DEFPOINTS
 62
     0
100
AcDbPoint
 10
1125.219037908293
 20
138.6492976462309
 30
0.0
  0
POINT
  5
780F
330
76A5
100
AcDbEntity
  8
DEFPOINTS
 62
     0
100
AcDbPoint
 10
1125.219037908293
 20
133.7130756036228
 30
0.0
  0
ENDBLK
  5
76A7
330
76A5
100
AcDbEntity
  8
0
100
AcDbBlockEnd
  0
BLOCK
  5
76B4
330
76B3
100
AcDbEntity
  8
0
100
AcDbBlockBegin
  2
*D283
 70
     1
 10
0.0
 20
0.0
 30
0.0
  3
*D283
  1

  0
LINE
  5
7810
330
76B3
100
AcDbEntity
  8
标注
370
    -2
100
AcDbLine
 10
1093.87626493558
 20
156.9951357246206
 30
0.0
 11
1093.417600967974
 21
157.4557085905384
 31
0.0
  0
MTEXT
  5
7811
330
76B3
100
AcDbEntity
  8
标注
100
AcDbMText
 10
1093.600253988969
 20
158.3447249952715
 30
0.0
 40
0.65
 41
0.0
 71
     5
 72
     1
  1
\A1;5-R3/8"
 11
0.7056368732401872
 21
-0.7085736398736634
 31
0.0
 73
     1
 44
1.0
1001
ACAD
1000
MTEXTBEGIN
1070
    73
1070
     1
1070
    44
1040
1.0
1070
    74
1070
     0
1000
MTEXTEND
  0
LINE
  5
7812
330
76B3
100
AcDbEntity
  8
标注
370
    -2
100
AcDbLine
 10
1094.6127386958
 20
156.2555968587534
 30
0.0
 11
1094.334928903186
 21
156.5345628587027
 31
0.0
  0
SOLID
  5
7813
330
76B3
100
AcDbEntity
  8
标注
100
AcDbTrace
 10
1093.9530270799
 20
157.0715797192216
 30
0.0
 11
1093.79950279126
 21
156.9186917300195
 31
0.0
 12
1094.334928903186
 22
156.5345628587027
 32
0.0
 13
1094.334928903186
 23
156.5345628587027
 33
0.0
  0
POINT
  5
7814
330
76B3
100
AcDbEntity
  8
DEFPOINTS
 62
     0
100
AcDbPoint
 10
1094.334928903186
 20
156.5345628587027
 30
0.0
  0
POINT
  5
7815
330
76B3
100
AcDbEntity
  8
DEFPOINTS
 62
     0
100
AcDbPoint
 10
1094.6127386958
 20
156.2555968587534
 30
0.0
  0
ENDBLK
  5
76B5
330
76B3
100
AcDbEntity
  8
0
100
AcDbBlockEnd
  0
BLOCK
  5
76BE
330
76BD
100
AcDbEntity
  8
0
100
AcDbBlockBegin
  2
*D284
 70
     1
 10
0.0
 20
0.0
 30
0.0
  3
*D284
  1

  0
LINE
  5
7816
330
76BD
100
AcDbEntity
  8
标注
370
    -2
100
AcDbLine
 10
1124.291583090298
 20
154.1893666535615
 30
0.0
 11
1124.581953552567
 21
154.7709034061764
 31
0.0
  0
MTEXT
  5
7817
330
76BD
100
AcDbEntity
  8
标注
100
AcDbMText
 10
1124.530643726963
 20
155.8799004967975
 30
0.0
 40
0.65
 41
0.0
 71
     5
 72
     1
  1
\A1;4-R3/8"
 11
0.4467237881053878
 21
0.8946719270999691
 31
0.0
 73
     1
 44
1.0
1001
ACAD
1000
MTEXTBEGIN
1070
    73
1070
     1
1070
    44
1040
1.0
1070
    74
1070
     0
1000
MTEXTEND
  0
LINE
  5
7818
330
76BD
100
AcDbEntity
  8
标注
370
    -2
100
AcDbLine
 10
1123.825337120903
 20
153.2555968587827
 30
0.0
 11
1124.00121262803
 21
153.6078299009465
 31
0.0
  0
SOLID
  5
7819
330
76BD
100
AcDbEntity
  8
标注
100
AcDbTrace
 10
1124.194660298196
 20
154.2377617306062
 30
0.0
 11
1124.388505882401
 21
154.1409715765167
 31
0.0
 12
1124.00121262803
 22
153.6078299009465
 32
0.0
 13
1124.00121262803
 23
153.6078299009465
 33
0.0
  0
POINT
  5
781A
330
76BD
100
AcDbEntity
  8
DEFPOINTS
 62
     0
100
AcDbPoint
 10
1124.00121262803
 20
153.6078299009465
 30
0.0
  0
POINT
  5
781B
330
76BD
100
AcDbEntity
  8
DEFPOINTS
 62
     0
100
AcDbPoint
 10
1123.825337120903
 20
153.2555968587827
 30
0.0
  0
ENDBLK
  5
76BF
330
76BD
100
AcDbEntity
  8
0
100
AcDbBlockEnd
  0
BLOCK
  5
76EC
330
76EB
100
AcDbEntity
  8
0
100
AcDbBlockBegin
  2
*D285
 70
     1
 10
0.0
 20
0.0
 30
0.0
  3
*D285
  1

  0
LINE
  5
781C
330
76EB
100
AcDbEntity
  8
标注
370
    -2
100
AcDbLine
 10
1126.099037908293
 20
180.2520553898191
 30
0.0
 11
1126.704445311587
 21
180.2520553898191
 31
0.0
  0
LINE
  5
781D
330
76EB
100
AcDbEntity
  8
标注
370
    -2
100
AcDbLine
 10
1125.2099719636
 20
172.3114609016493
 30
0.0
 11
1126.704445311587
 21
172.3114609016493
 31
0.0
  0
LINE
  5
781E
330
76EB
100
AcDbEntity
  8
标注
370
    -2
100
AcDbLine
 10
1126.384445311588
 20
179.6020553898191
 30
0.0
 11
1126.384445311588
 21
176.95575200658
 31
0.0
  0
LINE
  5
781F
330
76EB
100
AcDbEntity
  8
标注
370
    -2
100
AcDbLine
 10
1126.384445311588
 20
172.9614609016492
 30
0.0
 11
1126.384445311588
 21
175.6077642848883
 31
0.0
  0
SOLID
  5
7820
330
76EB
100
AcDbEntity
  8
标注
100
AcDbTrace
 10
1126.276111978254
 20
179.6020553898191
 30
0.0
 11
1126.492778644921
 21
179.6020553898191
 31
0.0
 12
1126.384445311588
 22
180.2520553898191
 32
0.0
 13
1126.384445311588
 23
180.2520553898191
 33
0.0
  0
SOLID
  5
7821
330
76EB
100
AcDbEntity
  8
标注
100
AcDbTrace
 10
1126.276111978254
 20
172.9614609016492
 30
0.0
 11
1126.492778644921
 21
172.9614609016492
 31
0.0
 12
1126.384445311588
 22
172.3114609016493
 32
0.0
 13
1126.384445311588
 23
172.3114609016493
 33
0.0
  0
MTEXT
  5
7822
330
76EB
100
AcDbEntity
  8
标注
100
AcDbMText
 10
1126.384445311588
 20
176.2817581457344
 30
0.0
 40
0.65
 41
0.0
 71
     5
 72
     1
  1
\A1;8"
 11
0.0000000000000001
 21
1.0
 31
0.0
 73
     1
 44
1.0
1001
ACAD
1000
MTEXTBEGIN
1070
    73
1070
     1
1070
    44
1040
1.0
1070
    74
1070
     0
1000
MTEXTEND
  0
POINT
  5
7823
330
76EB
100
AcDbEntity
  8
DEFPOINTS
 62
     0
100
AcDbPoint
 10
1125.219037908293
 20
180.2520553898191
 30
0.0
  0
POINT
  5
7824
330
76EB
100
AcDbEntity
  8
DEFPOINTS
 62
     0
100
AcDbPoint
 10
1124.3299719636
 20
172.3114609016493
 30
0.0
  0
POINT
  5
7825
330
76EB
100
AcDbEntity
  8
DEFPOINTS
 62
     0
100
AcDbPoint
 10
1126.384445311588
 20
172.3114609016493
 30
0.0
  0
ENDBLK
  5
76ED
330
76EB
100
AcDbEntity
  8
0
100
AcDbBlockEnd
  0
BLOCK
  5
770E
330
770D
100
AcDbEntity
  8
0
100
AcDbBlockBegin
  2
*D286
 70
     1
 10
0.0
 20
0.0
 30
0.0
  3
*D286
  1

  0
LINE
  5
7826
330
770D
100
AcDbEntity
  8
标注
370
    -2
100
AcDbLine
 10
1092.339037908409
 20
180.2520553898191
 30
0.0
 11
1090.297624076173
 21
180.2520553898191
 31
0.0
  0
LINE
  5
7827
330
770D
100
AcDbEntity
  8
标注
370
    -2
100
AcDbLine
 10
1092.476586291607
 20
170.1897237893847
 30
0.0
 11
1090.297624076173
 21
170.1897237893847
 31
0.0
  0
LINE
  5
7828
330
770D
100
AcDbEntity
  8
标注
370
    -2
100
AcDbLine
 10
1090.617624076173
 20
179.6020553898191
 30
0.0
 11
1090.617624076173
 21
176.1163534368052
 31
0.0
  0
LINE
  5
7829
330
770D
100
AcDbEntity
  8
标注
370
    -2
100
AcDbLine
 10
1090.617624076173
 20
170.8397237893848
 30
0.0
 11
1090.617624076173
 21
174.3254257423986
 31
0.0
  0
SOLID
  5
782A
330
770D
100
AcDbEntity
  8
标注
100
AcDbTrace
 10
1090.509290742839
 20
179.6020553898191
 30
0.0
 11
1090.725957409506
 21
179.6020553898191
 31
0.0
 12
1090.617624076173
 22
180.2520553898191
 32
0.0
 13
1090.617624076173
 23
180.2520553898191
 33
0.0
  0
SOLID
  5
782B
330
770D
100
AcDbEntity
  8
标注
100
AcDbTrace
 10
1090.509290742839
 20
170.8397237893848
 30
0.0
 11
1090.725957409506
 21
170.8397237893848
 31
0.0
 12
1090.617624076173
 22
170.1897237893847
 32
0.0
 13
1090.617624076173
 23
170.1897237893847
 33
0.0
  0
MTEXT
  5
782C
330
770D
100
AcDbEntity
  8
标注
100
AcDbMText
 10
1090.617624076173
 20
175.2208895896021
 30
0.0
 40
0.65
 41
0.0
 71
     5
 72
     1
  1
\A1;10"
 11
0.0000000000000001
 21
1.0
 31
0.0
 73
     1
 44
1.0
1001
ACAD
1000
MTEXTBEGIN
1070
    73
1070
     1
1070
    44
1040
1.0
1070
    74
1070
     0
1000
MTEXTEND
  0
POINT
  5
782D
330
770D
100
AcDbEntity
  8
DEFPOINTS
 62
     0
100
AcDbPoint
 10
1093.219037908409
 20
180.2520553898191
 30
0.0
  0
POINT
  5
782E
330
770D
100
AcDbEntity
  8
DEFPOINTS
 62
     0
100
AcDbPoint
 10
1093.356586291608
 20
170.1897237893847
 30
0.0
  0
POINT
  5
782F
330
770D
100
AcDbEntity
  8
DEFPOINTS
 62
     0
100
AcDbPoint
 10
1090.617624076173
 20
170.1897237893847
 30
0.0
  0
ENDBLK
  5
770F
330
770D
100
AcDbEntity
  8
0
100
AcDbBlockEnd
  0
BLOCK
  5
7746
330
7745
100
AcDbEntity
  8
0
100
AcDbBlockBegin
  2
*D287
 70
     1
 10
0.0
 20
0.0
 30
0.0
  3
*D287
  1

  0
LINE
  5
7830
330
7745
100
AcDbEntity
  8
标注
370
    -2
100
AcDbLine
 10
1093.802240785223
 20
170.0507709463767
 30
0.0
 11
1093.297475771884
 21
169.6412440470058
 31
0.0
  0
MTEXT
  5
7831
330
7745
100
AcDbEntity
  8
标注
100
AcDbMText
 10
1095.198511755165
 20
171.6841163083834
 30
0.0
 40
0.65
 41
0.0
 71
     5
 72
     1
  1
\A1;R3/8"
 11
0.7765615589838496
 21
0.6300413836475928
 31
0.0
 73
     1
 44
1.0
1001
ACAD
1000
MTEXTBEGIN
1070
    73
1070
     1
1070
    44
1040
1.0
1070
    74
1070
     0
1000
MTEXTEND
  0
LINE
  5
7832
330
7745
100
AcDbEntity
  8
标注
370
    -2
100
AcDbLine
 10
1094.6127386958
 20
170.7083456345843
 30
0.0
 11
1094.307005798563
 21
170.4602978457476
 31
0.0
  0
SOLID
  5
7833
330
7745
100
AcDbEntity
  8
标注
100
AcDbTrace
 10
1093.733986301995
 20
170.1348984486
 30
0.0
 11
1093.870495268451
 21
169.9666434441534
 31
0.0
 12
1094.307005798563
 22
170.4602978457476
 32
0.0
 13
1094.307005798563
 23
170.4602978457476
 33
0.0
  0
POINT
  5
7834
330
7745
100
AcDbEntity
  8
DEFPOINTS
 62
     0
100
AcDbPoint
 10
1094.307005798563
 20
170.4602978457476
 30
0.0
  0
POINT
  5
7835
330
7745
100
AcDbEntity
  8
DEFPOINTS
 62
     0
100
AcDbPoint
 10
1094.6127386958
 20
170.7083456345843
 30
0.0
  0
ENDBLK
  5
7747
330
7745
100
AcDbEntity
  8
0
100
AcDbBlockEnd
  0
BLOCK
  5
7750
330
774F
100
AcDbEntity
  8
0
100
AcDbBlockBegin
  2
*D288
 70
     1
 10
0.0
 20
0.0
 30
0.0
  3
*D288
  1

  0
LINE
  5
7836
330
774F
100
AcDbEntity
  8
标注
370
    -2
100
AcDbLine
 10
1112.872264177389
 20
171.9753720636373
 30
0.0
 11
1112.411108602228
 21
171.5172939747729
 31
0.0
  0
MTEXT
  5
7837
330
774F
100
AcDbEntity
  8
标注
100
AcDbMText
 10
1114.150678800255
 20
173.7005345679518
 30
0.0
 40
0.65
 41
0.0
 71
     5
 72
     1
  1
\A1;R3/8"
 11
0.7094701156328542
 21
0.7047355213297429
 31
0.0
 73
     1
 44
1.0
1001
ACAD
1000
MTEXTBEGIN
1070
    73
1070
     1
1070
    44
1040
1.0
1070
    74
1070
     0
1000
MTEXTEND
  0
LINE
  5
7838
330
774F
100
AcDbEntity
  8
标注
370
    -2
100
AcDbLine
 10
1113.612738695712
 20
172.7109050821579
 30
0.0
 11
1113.333419752551
 21
172.4334501525015
 31
0.0
  0
SOLID
  5
7839
330
774F
100
AcDbEntity
  8
标注
100
AcDbTrace
 10
1112.795917829245
 20
172.0522313261642
 30
0.0
 11
1112.948610525533
 21
171.8985128011103
 31
0.0
 12
1113.333419752551
 22
172.4334501525015
 32
0.0
 13
1113.333419752551
 23
172.4334501525015
 33
0.0
  0
POINT
  5
783A
330
774F
100
AcDbEntity
  8
DEFPOINTS
 62
     0
100
AcDbPoint
 10
1113.333419752551
 20
172.4334501525015
 30
0.0
  0
POINT
  5
783B
330
774F
100
AcDbEntity
  8
DEFPOINTS
 62
     0
100
AcDbPoint
 10
1113.612738695712
 20
172.7109050821579
 30
0.0
  0
ENDBLK
  5
7751
330
774F
100
AcDbEntity
  8
0
100
AcDbBlockEnd
  0
BLOCK
  5
7766
330
7765
100
AcDbEntity
  8
0
100
AcDbBlockBegin
  2
*D289
 70
     1
 10
0.0
 20
0.0
 30
0.0
  3
*D289
  1

  0
LINE
  5
783C
330
7765
100
AcDbEntity
  8
标注
370
    -2
100
AcDbLine
 10
1094.140297750931
 20
102.9269107860633
 30
0.0
 11
1094.140297750931
 21
100.45367402825
 31
0.0
  0
LINE
  5
783D
330
7765
100
AcDbEntity
  8
标注
370
    -2
100
AcDbLine
 10
1124.297778065771
 20
102.9269107860633
 30
0.0
 11
1124.297778065771
 21
100.45367402825
 31
0.0
  0
LINE
  5
783E
330
7765
100
AcDbEntity
  8
标注
370
    -2
100
AcDbLine
 10
1094.790297750931
 20
100.77367402825
 30
0.0
 11
1107.535903529088
 21
100.77367402825
 31
0.0
  0
LINE
  5
783F
330
7765
100
AcDbEntity
  8
标注
370
    -2
100
AcDbLine
 10
1123.64777806577
 20
100.77367402825
 30
0.0
 11
1110.902172287614
 21
100.77367402825
 31
0.0
  0
SOLID
  5
7840
330
7765
100
AcDbEntity
  8
标注
100
AcDbTrace
 10
1094.790297750931
 20
100.8820073615833
 30
0.0
 11
1094.790297750931
 21
100.6653406949167
 31
0.0
 12
1094.140297750931
 22
100.77367402825
 32
0.0
 13
1094.140297750931
 23
100.77367402825
 33
0.0
  0
SOLID
  5
7841
330
7765
100
AcDbEntity
  8
标注
100
AcDbTrace
 10
1123.64777806577
 20
100.8820073615833
 30
0.0
 11
1123.64777806577
 21
100.6653406949167
 31
0.0
 12
1124.297778065771
 22
100.77367402825
 32
0.0
 13
1124.297778065771
 23
100.77367402825
 33
0.0
  0
MTEXT
  5
7842
330
7765
100
AcDbEntity
  8
标注
100
AcDbMText
 10
1109.219037908351
 20
100.77367402825
 30
0.0
 40
0.65
 41
0.0
 71
     5
 72
     1
  1
\A1;30 1/8"
 73
     1
 44
1.0
1001
ACAD
1000
MTEXTBEGIN
1070
    73
1070
     1
1070
    44
1040
1.0
1070
    74
1070
     0
1000
MTEXTEND
  0
POINT
  5
7843
330
7765
100
AcDbEntity
  8
DEFPOINTS
 62
     0
100
AcDbPoint
 10
1094.140297750931
 20
103.8069107860633
 30
0.0
  0
POINT
  5
7844
330
7765
100
AcDbEntity
  8
DEFPOINTS
 62
     0
100
AcDbPoint
 10
1124.297778065771
 20
103.8069107860633
 30
0.0
  0
POINT
  5
7845
330
7765
100
AcDbEntity
  8
DEFPOINTS
 62
     0
100
AcDbPoint
 10
1124.297778065771
 20
100.77367402825
 30
0.0
  0
ENDBLK
  5
7767
330
7765
100
AcDbEntity
  8
0
100
AcDbBlockEnd
  0
BLOCK
  5
7774
330
7773
100
AcDbEntity
  8
0
100
AcDbBlockBegin
  2
*D290
 70
     1
 10
0.0
 20
0.0
 30
0.0
  3
*D290
  1

  0
LINE
  5
7846
330
7773
100
AcDbEntity
  8
标注
370
    -2
100
AcDbLine
 10
1124.705337120903
 20
103.3344698411661
 30
0.0
 11
1126.861296074281
 21
103.3344698411661
 31
0.0
  0
LINE
  5
7847
330
7773
100
AcDbEntity
  8
标注
370
    -2
100
AcDbLine
 10
1124.705337120903
 20
118.4919501560758
 30
0.0
 11
1126.861296074281
 21
118.4919501560758
 31
0.0
  0
LINE
  5
7848
330
7773
100
AcDbEntity
  8
标注
370
    -2
100
AcDbLine
 10
1126.541296074281
 20
103.9844698411661
 30
0.0
 11
1126.541296074281
 21
109.2604473792485
 31
0.0
  0
LINE
  5
7849
330
7773
100
AcDbEntity
  8
标注
370
    -2
100
AcDbLine
 10
1126.541296074281
 20
117.8419501560758
 30
0.0
 11
1126.541296074281
 21
112.5659726179934
 31
0.0
  0
SOLID
  5
784A
330
7773
100
AcDbEntity
  8
标注
100
AcDbTrace
 10
1126.432962740947
 20
103.9844698411661
 30
0.0
 11
1126.649629407614
 21
103.9844698411661
 31
0.0
 12
1126.541296074281
 22
103.3344698411661
 32
0.0
 13
1126.541296074281
 23
103.3344698411661
 33
0.0
  0
SOLID
  5
784B
330
7773
100
AcDbEntity
  8
标注
100
AcDbTrace
 10
1126.432962740947
 20
117.8419501560758
 30
0.0
 11
1126.649629407614
 21
117.8419501560758
 31
0.0
 12
1126.541296074281
 22
118.4919501560758
 32
0.0
 13
1126.541296074281
 23
118.4919501560758
 33
0.0
  0
MTEXT
  5
784C
330
7773
100
AcDbEntity
  8
标注
100
AcDbMText
 10
1126.541296074281
 20
110.9132099986211
 30
0.0
 40
0.65
 41
0.0
 71
     5
 72
     1
  1
\A1;15 1/8"
 11
0.0000000000000001
 21
1.0
 31
0.0
 73
     1
 44
1.0
1001
ACAD
1000
MTEXTBEGIN
1070
    73
1070
     1
1070
    44
1040
1.0
1070
    74
1070
     0
1000
MTEXTEND
  0
POINT
  5
784D
330
7773
100
AcDbEntity
  8
DEFPOINTS
 62
     0
100
AcDbPoint
 10
1123.825337120903
 20
103.3344698411661
 30
0.0
  0
POINT
  5
784E
330
7773
100
AcDbEntity
  8
DEFPOINTS
 62
     0
100
AcDbPoint
 10
1123.825337120903
 20
118.4919501560758
 30
0.0
  0
POINT
  5
784F
330
7773
100
AcDbEntity
  8
DEFPOINTS
 62
     0
100
AcDbPoint
 10
1126.541296074281
 20
118.4919501560758
 30
0.0
  0
ENDBLK
  5
7775
330
7773
100
AcDbEntity
  8
0
100
AcDbBlockEnd
  0
BLOCK
  5
7782
330
7781
100
AcDbEntity
  8
0
100
AcDbBlockBegin
  2
*D291
 70
     1
 10
0.0
 20
0.0
 30
0.0
  3
*D291
  1

  0
LINE
  5
7850
330
7781
100
AcDbEntity
  8
标注
370
    -2
100
AcDbLine
 10
1093.732738695799
 20
121.4919501560639
 30
0.0
 11
1091.348689843156
 21
121.4919501560639
 31
0.0
  0
LINE
  5
7851
330
7781
100
AcDbEntity
  8
标注
370
    -2
100
AcDbLine
 10
1093.732738695799
 20
103.3344698411661
 30
0.0
 11
1091.348689843156
 21
103.3344698411661
 31
0.0
  0
LINE
  5
7852
330
7781
100
AcDbEntity
  8
标注
370
    -2
100
AcDbLine
 10
1091.668689843156
 20
120.8419501560639
 30
0.0
 11
1091.668689843156
 21
114.0659726179874
 31
0.0
  0
LINE
  5
7853
330
7781
100
AcDbEntity
  8
标注
370
    -2
100
AcDbLine
 10
1091.668689843156
 20
103.9844698411661
 30
0.0
 11
1091.668689843156
 21
110.7604473792426
 31
0.0
  0
SOLID
  5
7854
330
7781
100
AcDbEntity
  8
标注
100
AcDbTrace
 10
1091.560356509823
 20
120.8419501560639
 30
0.0
 11
1091.77702317649
 21
120.8419501560639
 31
0.0
 12
1091.668689843156
 22
121.4919501560639
 32
0.0
 13
1091.668689843156
 23
121.4919501560639
 33
0.0
  0
SOLID
  5
7855
330
7781
100
AcDbEntity
  8
标注
100
AcDbTrace
 10
1091.560356509823
 20
103.9844698411661
 30
0.0
 11
1091.77702317649
 21
103.9844698411661
 31
0.0
 12
1091.668689843156
 22
103.3344698411661
 32
0.0
 13
1091.668689843156
 23
103.3344698411661
 33
0.0
  0
MTEXT
  5
7856
330
7781
100
AcDbEntity
  8
标注
100
AcDbMText
 10
1091.668689843156
 20
112.4132099986152
 30
0.0
 40
0.65
 41
0.0
 71
     5
 72
     1
  1
\A1;18 1/8"
 11
0.0000000000000001
 21
1.0
 31
0.0
 73
     1
 44
1.0
1001
ACAD
1000
MTEXTBEGIN
1070
    73
1070
     1
1070
    44
1040
1.0
1070
    74
1070
     0
1000
MTEXTEND
  0
POINT
  5
7857
330
7781
100
AcDbEntity
  8
DEFPOINTS
 62
     0
100
AcDbPoint
 10
1094.612738695799
 20
121.4919501560639
 30
0.0
  0
POINT
  5
7858
330
7781
100
AcDbEntity
  8
DEFPOINTS
 62
     0
100
AcDbPoint
 10
1094.612738695799
 20
103.3344698411661
 30
0.0
  0
POINT
  5
7859
330
7781
100
AcDbEntity
  8
DEFPOINTS
 62
     0
100
AcDbPoint
 10
1091.668689843156
 20
103.3344698411661
 30
0.0
  0
ENDBLK
  5
7783
330
7781
100
AcDbEntity
  8
0
100
AcDbBlockEnd
  0
BLOCK
  5
779C
330
779B
100
AcDbEntity
  8
0
100
AcDbBlockBegin
  2
*D292
 70
     1
 10
0.0
 20
0.0
 30
0.0
  3
*D292
  1

  0
LINE
  5
785A
330
779B
100
AcDbEntity
  8
标注
370
    -2
100
AcDbLine
 10
1094.000393770082
 20
102.8662156352885
 30
0.0
 11
1093.645787852032
 21
102.3214637258071
 31
0.0
  0
MTEXT
  5
785B
330
779B
100
AcDbEntity
  8
标注
100
AcDbMText
 10
1095.007723061172
 20
104.9823665217169
 30
0.0
 40
0.65
 41
0.0
 71
     5
 72
     1
  1
\A1;4-R1/2"
 11
0.5455475662312493
 21
0.8380798607407056
 31
0.0
 73
     1
 44
1.0
1001
ACAD
1000
MTEXTBEGIN
1070
    73
1070
     1
1070
    44
1040
1.0
1070
    74
1070
     0
1000
MTEXTEND
  0
LINE
  5
785C
330
779B
100
AcDbEntity
  8
标注
370
    -2
100
AcDbLine
 10
1094.6127386958
 20
103.8069107860634
 30
0.0
 11
1094.354999688132
 21
103.4109675447701
 31
0.0
  0
SOLID
  5
785D
330
779B
100
AcDbEntity
  8
标注
100
AcDbTrace
 10
1093.909601785168
 20
102.9253166216303
 30
0.0
 11
1094.091185754995
 21
102.8071146489468
 31
0.0
 12
1094.354999688132
 22
103.4109675447701
 32
0.0
 13
1094.354999688132
 23
103.4109675447701
 33
0.0
  0
POINT
  5
785E
330
779B
100
AcDbEntity
  8
DEFPOINTS
 62
     0
100
AcDbPoint
 10
1094.354999688132
 20
103.4109675447701
 30
0.0
  0
POINT
  5
785F
330
779B
100
AcDbEntity
  8
DEFPOINTS
 62
     0
100
AcDbPoint
 10
1094.6127386958
 20
103.8069107860634
 30
0.0
  0
ENDBLK
  5
779D
330
779B
100
AcDbEntity
  8
0
100
AcDbBlockEnd
  0
BLOCK
  5
77A6
330
77A5
100
AcDbEntity
  8
0
100
AcDbBlockBegin
  2
*D293
 70
     1
 10
0.0
 20
0.0
 30
0.0
  3
*D293
  1

  0
LINE
  5
7860
330
77A5
100
AcDbEntity
  8
标注
370
    -2
100
AcDbLine
 10
1111.886533972846
 20
117.992092217273
 30
0.0
 11
1111.561771314293
 21
117.429038742362
 31
0.0
  0
MTEXT
  5
7861
330
77A5
100
AcDbEntity
  8
标注
100
AcDbMText
 10
1112.539704507055
 20
120.0034754309798
 30
0.0
 40
0.65
 41
0.0
 71
     5
 72
     1
  1
\A1;R1/2"
 11
0.4996348593125619
 21
0.8662361152478675
 31
0.0
 73
     1
 44
1.0
1001
ACAD
1000
MTEXTBEGIN
1070
    73
1070
     1
1070
    44
1040
1.0
1070
    74
1070
     0
1000
MTEXTEND
  0
LINE
  5
7862
330
77A5
100
AcDbEntity
  8
标注
370
    -2
100
AcDbLine
 10
1112.447344596428
 20
118.9643911009611
 30
0.0
 11
1112.2112966314
 21
118.5551456921842
 31
0.0
  0
SOLID
  5
7863
330
77A5
100
AcDbEntity
  8
标注
100
AcDbTrace
 10
1111.792691727028
 20
118.0462193270319
 30
0.0
 11
1111.980376218665
 21
117.9379651075142
 31
0.0
 12
1112.2112966314
 22
118.5551456921842
 32
0.0
 13
1112.2112966314
 23
118.5551456921842
 33
0.0
  0
POINT
  5
7864
330
77A5
100
AcDbEntity
  8
DEFPOINTS
 62
     0
100
AcDbPoint
 10
1112.2112966314
 20
118.5551456921842
 30
0.0
  0
POINT
  5
7865
330
77A5
100
AcDbEntity
  8
DEFPOINTS
 62
     0
100
AcDbPoint
 10
1112.447344596428
 20
118.9643911009611
 30
0.0
  0
ENDBLK
  5
77A7
330
77A5
100
AcDbEntity
  8
0
100
AcDbBlockEnd
  0
BLOCK
  5
77B0
330
77AF
100
AcDbEntity
  8
0
100
AcDbBlockBegin
  2
*D294
 70
     1
 10
0.0
 20
0.0
 30
0.0
  3
*D294
  1

  0
LINE
  5
7866
330
77AF
100
AcDbEntity
  8
标注
370
    -2
100
AcDbLine
 10
1109.435205492657
 20
122.075940857151
 30
0.0
 11
1109.654823695732
 21
122.6877151986184
 31
0.0
  0
MTEXT
  5
7867
330
77AF
100
AcDbEntity
  8
标注
100
AcDbMText
 10
1109.07288571938
 20
122.8917439178633
 30
0.0
 40
0.65
 41
0.0
 71
     5
 72
     1
  1
\A1;R1/2"
 11
0.3378741585777782
 21
0.9411912945652218
 31
0.0
 73
     1
 44
1.0
1001
ACAD
1000
MTEXTBEGIN
1070
    73
1070
     1
1070
    44
1040
1.0
1070
    74
1070
     0
1000
MTEXTEND
  0
LINE
  5
7868
330
77AF
100
AcDbEntity
  8
标注
370
    -2
100
AcDbLine
 10
1109.055961702852
 20
121.0195092111667
 30
0.0
 11
1109.215587289581
 21
121.4641665156836
 31
0.0
  0
SOLID
  5
7869
330
77AF
100
AcDbEntity
  8
标注
100
AcDbTrace
 10
1109.333243102412
 20
122.1125438909969
 30
0.0
 11
1109.537167882901
 21
122.0393378233051
 31
0.0
 12
1109.215587289581
 22
121.4641665156836
 32
0.0
 13
1109.215587289581
 23
121.4641665156836
 33
0.0
  0
POINT
  5
786A
330
77AF
100
AcDbEntity
  8
DEFPOINTS
 62
     0
100
AcDbPoint
 10
1109.215587289581
 20
121.4641665156836
 30
0.0
  0
POINT
  5
786B
330
77AF
100
AcDbEntity
  8
DEFPOINTS
 62
     0
100
AcDbPoint
 10
1109.055961702852
 20
121.0195092111667
 30
0.0
  0
ENDBLK
  5
77B1
330
77AF
100
AcDbEntity
  8
0
100
AcDbBlockEnd
  0
ENDSEC
  0
SECTION
  2
ENTITIES
  0
LINE
  5
7586
330
5F6E
100
AcDbEntity
  8
0
100
AcDbLine
 10
1094.612738695828
 20
139.0429984336211
 30
0.0
 11
1101.77841364207
 21
147.7910141607704
 31
0.0
  0
LINE
  5
7587
330
5F6E
100
AcDbEntity
  8
0
100
AcDbLine
 10
1093.219037908409
 20
180.2520553898191
 30
0.0
 11
1094.100927672192
 21
180.2520553898191
 31
0.0
  0
LINE
  5
7588
330
5F6E
100
AcDbEntity
  8
虚线
 48
4.0
370
     9
100
AcDbLine
 10
1094.219037908409
 20
180.1339451535729
 30
0.0
 11
1094.219037908409
 21
170.7083456345842
 31
0.0
  0
ARC
  5
7589
330
5F6E
100
AcDbEntity
  8
虚线
 48
4.0
370
     9
100
AcDbCircle
 10
1094.612738695799
 20
170.7083456345842
 30
0.0
 40
0.3937007874
100
AcDbArc
 50
180.0
 51
268.8525960680906
  0
LINE
  5
758A
330
5F6E
100
AcDbEntity
  8
虚线
 48
4.0
370
     9
100
AcDbLine
 10
1094.604854980036
 20
170.3147237893842
 30
0.0
 11
1100.862577201089
 21
170.1893900355041
 31
0.0
  0
LINE
  5
758B
330
5F6E
100
AcDbEntity
  8
虚线
 48
4.0
370
     9
100
AcDbLine
 10
1112.219037908351
 20
170.7083456340021
 30
0.0
 11
1112.219037908351
 21
180.1339451535729
 31
0.0
  0
LINE
  5
758C
330
5F6E
100
AcDbEntity
  8
0
100
AcDbLine
 10
1112.337148144568
 20
180.2520553898191
 30
0.0
 11
1113.100927672105
 21
180.2520553898191
 31
0.0
  0
LINE
  5
758D
330
5F6E
100
AcDbEntity
  8
虚线
 48
4.0
370
     9
100
AcDbLine
 10
1105.575498093752
 20
170.1893900355041
 30
0.0
 11
1111.833220836026
 21
170.3147237887731
 31
0.0
  0
ARC
  5
758E
330
5F6E
100
AcDbEntity
  8
虚线
 48
4.0
370
     9
100
AcDbCircle
 10
1111.825337120932
 20
170.7083456340021
 30
0.0
 40
0.3937007874
100
AcDbArc
 50
271.1474038468485
 51
0.0
  0
LINE
  5
758F
330
5F6E
100
AcDbEntity
  8
0
100
AcDbLine
 10
1094.100927672192
 20
180.2520553898191
 30
0.0
 11
1112.337148144568
 21
180.2520553898191
 31
0.0
  0
LINE
  5
7590
330
5F6E
100
AcDbEntity
  8
0
100
AcDbLine
 10
1104.65966217469
 20
147.7910141607704
 30
0.0
 11
1111.825337120932
 21
139.0429984336211
 31
0.0
  0
LINE
  5
7591
330
5F6E
100
AcDbEntity
  8
0
100
AcDbLine
 10
1093.219037908409
 20
138.498323906721
 30
0.0
 11
1093.219037908409
 21
156.8002713856536
 31
0.0
  0
LINE
  5
7592
330
5F6E
100
AcDbEntity
  8
0
100
AcDbLine
 10
1125.219037908293
 20
138.498323906721
 30
0.0
 11
1125.219037908293
 21
153.8002713856536
 31
0.0
  0
LINE
  5
7593
330
5F6E
100
AcDbEntity
  8
0
100
AcDbLine
 10
1124.219037908293
 20
139.0429984336211
 30
0.0
 11
1124.219037908293
 21
153.2555968587826
 31
0.0
  0
ARC
  5
7594
330
5F6E
100
AcDbEntity
  8
0
100
AcDbCircle
 10
1123.825337120903
 20
139.0429984336211
 30
0.0
 40
0.3937007874
100
AcDbArc
 50
270.0
 51
0.0
  0
ARC
  5
7595
330
5F6E
100
AcDbEntity
  8
0
100
AcDbCircle
 10
1123.825337120903
 20
153.2555968587826
 30
0.0
 40
0.3937007874
100
AcDbArc
 50
0.0
 51
90.0
  0
LINE
  5
7596
330
5F6E
100
AcDbEntity
  8
0
100
AcDbLine
 10
1094.068064168928
 20
137.6492976462309
 30
0.0
 11
1124.370011647803
 21
137.6492976462309
 31
0.0
  0
LINE
  5
7597
330
5F6E
100
AcDbEntity
  8
0
100
AcDbLine
 10
1113.612738695741
 20
138.6492976462309
 30
0.0
 11
1123.825337120903
 21
138.6492976462309
 31
0.0
  0
LINE
  5
7598
330
5F6E
100
AcDbEntity
  8
0
100
AcDbLine
 10
1112.714789573703
 20
154.6492976461727
 30
0.0
 11
1124.370011647803
 21
154.6492976461727
 31
0.0
  0
ARC
  5
7599
330
5F6E
100
AcDbEntity
  8
0
100
AcDbCircle
 10
1112.714789573703
 20
154.8461480398678
 30
0.0
 40
0.1968503937
100
AcDbArc
 50
225.0000000000047
 51
270.0
  0
LINE
  5
759A
330
5F6E
100
AcDbEntity
  8
0
100
AcDbLine
 10
1113.612738695741
 20
153.6492976461727
 30
0.0
 11
1123.825337120903
 21
153.6492976461727
 31
0.0
  0
ARC
  5
759B
330
5F6E
100
AcDbEntity
  8
0
100
AcDbCircle
 10
1113.612738695741
 20
153.2555968587826
 30
0.0
 40
0.3937007874
100
AcDbArc
 50
90.0
 51
180.0
  0
LINE
  5
759C
330
5F6E
100
AcDbEntity
  8
0
100
AcDbLine
 10
1094.068063283328
 20
157.6492976461436
 30
0.0
 11
1109.470175265149
 21
157.6492976462309
 31
0.0
  0
LINE
  5
759D
330
5F6E
100
AcDbEntity
  8
0
100
AcDbLine
 10
1113.219037908351
 20
153.2555968587826
 30
0.0
 11
1113.219037908351
 21
139.0429984336211
 31
0.0
  0
ARC
  5
759E
330
5F6E
100
AcDbEntity
  8
0
100
AcDbCircle
 10
1113.612738695741
 20
139.0429984336211
 30
0.0
 40
0.3937007874
100
AcDbArc
 50
180.0
 51
270.0
  0
LINE
  5
759F
330
5F6E
100
AcDbEntity
  8
0
100
AcDbLine
 10
1094.612738695828
 20
138.6492976462309
 30
0.0
 11
1111.825337120932
 21
138.6492976462309
 31
0.0
  0
LINE
  5
75A0
330
5F6E
100
AcDbEntity
  8
0
100
AcDbLine
 10
1112.219037908351
 20
153.4862214406735
 30
0.0
 11
1112.219037908351
 21
139.0429984336211
 31
0.0
  0
ARC
  5
75A1
330
5F6E
100
AcDbEntity
  8
0
100
AcDbCircle
 10
1111.825337120932
 20
139.0429984336211
 30
0.0
 40
0.3937007874
100
AcDbArc
 50
270.0
 51
0.0
  0
LINE
  5
75A2
330
5F6E
100
AcDbEntity
  8
0
100
AcDbLine
 10
1094.219037908409
 20
139.0429984336211
 30
0.0
 11
1094.219037908409
 21
156.2555968587535
 31
0.0
  0
ARC
  5
75A3
330
5F6E
100
AcDbEntity
  8
0
100
AcDbCircle
 10
1094.612738695828
 20
139.0429984336211
 30
0.0
 40
0.3937007874
100
AcDbArc
 50
180.0
 51
270.0
  0
LINE
  5
75A4
330
5F6E
100
AcDbEntity
  8
0
100
AcDbLine
 10
1094.612738695799
 20
156.6492976461727
 30
0.0
 11
1109.055961702852
 21
156.6492976461727
 31
0.0
  0
ARC
  5
75A5
330
5F6E
100
AcDbEntity
  8
0
100
AcDbCircle
 10
1094.612738695799
 20
156.2555968587535
 30
0.0
 40
0.3937007874
100
AcDbArc
 50
90.0
 51
180.0
  0
CIRCLE
  5
75A6
330
5F6E
100
AcDbEntity
  8
0
100
AcDbCircle
 10
1103.21903790838
 20
149.5626834729469
 30
0.0
 40
2.165354330700524
  0
CIRCLE
  5
75A7
330
5F6E
100
AcDbEntity
  8
0
100
AcDbCircle
 10
1103.21903790838
 20
149.5626834729469
 30
0.0
 40
1.791338582670303
  0
CIRCLE
  5
75A8
330
5F6E
100
AcDbEntity
  8
0
100
AcDbCircle
 10
1103.21903790838
 20
149.5626834729469
 30
0.0
 40
2.28346456692
  0
LINE
  5
75A9
330
5F6E
100
AcDbEntity
  8
虚线
 48
4.0
370
     9
100
AcDbLine
 10
1105.575498093752
 20
170.1893900355041
 30
0.0
 11
1100.862577201089
 21
170.1893900355041
 31
0.0
  0
ARC
  5
75AA
330
5F6E
100
AcDbEntity
  8
虚线
 48
4.0
370
     9
100
AcDbCircle
 10
1100.86257720106
 20
170.0712797992871
 30
0.0
 40
0.11811023622
100
AcDbArc
 50
26.5650510443333
 51
90.0
  0
ARC
  5
75AB
330
5F6E
100
AcDbEntity
  8
虚线
 48
4.0
370
     9
100
AcDbCircle
 10
1105.5754986157
 20
170.0712797992871
 30
0.0
 40
0.11811023622
100
AcDbArc
 50
90.0
 51
153.4349486715374
  0
ARC
  5
75AC
330
5F6E
100
AcDbEntity
  8
虚线
 48
4.0
370
     9
100
AcDbCircle
 10
1101.090181647876
 20
170.0122246811931
 30
0.0
 40
0.05905511811
100
AcDbArc
 50
206.5650516506218
 51
269.9999999583118
  0
ARC
  5
75AD
330
5F6E
100
AcDbEntity
  8
虚线
 48
4.0
370
     9
100
AcDbCircle
 10
1105.347894168884
 20
170.0122246811931
 30
0.0
 40
0.05905511811
100
AcDbArc
 50
270.0000000416882
 51
333.4349477811253
  0
LINE
  5
75AE
330
5F6E
100
AcDbEntity
  8
虚线
 48
4.0
370
     9
100
AcDbLine
 10
1105.400714672276
 20
169.9858144295119
 30
0.0
 11
1105.469857608888
 21
170.1241003027077
 31
0.0
  0
LINE
  5
75AF
330
5F6E
100
AcDbEntity
  8
虚线
 48
4.0
370
     9
100
AcDbLine
 10
1101.090181647876
 20
169.95316956307
 30
0.0
 11
1101.447384365066
 21
169.95316956307
 31
0.0
  0
LINE
  5
75B0
330
5F6E
100
AcDbEntity
  8
虚线
 48
4.0
370
     9
100
AcDbLine
 10
1104.990691451665
 20
169.8941144449761
 30
0.0
 11
1104.990691451665
 21
169.95316956307
 31
0.0
  0
LINE
  5
75B1
330
5F6E
100
AcDbEntity
  8
虚线
 48
4.0
370
     9
100
AcDbLine
 10
1101.037361144484
 20
169.9858144295119
 30
0.0
 11
1100.968218207872
 21
170.1241003027077
 31
0.0
  0
LINE
  5
75B2
330
5F6E
100
AcDbEntity
  8
虚线
 48
4.0
370
     9
100
AcDbLine
 10
1101.447384365066
 20
169.8941144449761
 30
0.0
 11
1101.447384365066
 21
169.95316956307
 31
0.0
  0
LINE
  5
75B3
330
5F6E
100
AcDbEntity
  8
虚线
 48
4.0
370
     9
100
AcDbLine
 10
1104.990691451665
 20
169.95316956307
 30
0.0
 11
1105.347894168884
 21
169.95316956307
 31
0.0
  0
LINE
  5
75B4
330
5F6E
100
AcDbEntity
  8
虚线
 48
4.0
370
     9
100
AcDbLine
 10
1101.447384365066
 20
169.95316956307
 30
0.0
 11
1104.990691451665
 21
169.95316956307
 31
0.0
  0
LINE
  5
75B5
330
5F6E
100
AcDbEntity
  8
0
100
AcDbLine
 10
1100.984540641064
 20
169.9594041778016
 30
0.0
 11
1100.91539770448
 21
170.0976900510265
 31
0.0
  0
ARC
  5
75B6
330
5F6E
100
AcDbEntity
  8
0
100
AcDbCircle
 10
1100.86257720106
 20
170.0712797992871
 30
0.0
 40
0.05905511811
100
AcDbArc
 50
26.5650510443333
 51
90.0
  0
LINE
  5
75B7
330
5F6E
100
AcDbEntity
  8
0
100
AcDbLine
 10
1094.603672703717
 20
170.2556884629136
 30
0.0
 11
1100.862577201089
 21
170.1303349174102
 31
0.0
  0
ARC
  5
75B8
330
5F6E
100
AcDbEntity
  8
0
100
AcDbCircle
 10
1094.612738695799
 20
170.7083535905237
 30
0.0
 40
0.4527559055100001
100
AcDbArc
 50
180.0
 51
268.8526316535614
  0
ARC
  5
75B9
330
5F6E
100
AcDbEntity
  8
0
100
AcDbCircle
 10
1101.090181647876
 20
170.0122246811931
 30
0.0
 40
0.11811023622
100
AcDbArc
 50
206.5650516506218
 51
269.9999999583118
  0
LINE
  5
75BA
330
5F6E
100
AcDbEntity
  8
0
100
AcDbLine
 10
1101.090181647876
 20
169.8941144449761
 30
0.0
 11
1101.447384365066
 21
169.8941144449761
 31
0.0
  0
LINE
  5
75BB
330
5F6E
100
AcDbEntity
  8
0
100
AcDbLine
 10
1101.447384365066
 20
169.8941144449761
 30
0.0
 11
1104.990691451665
 21
169.8941144449761
 31
0.0
  0
LINE
  5
75BC
330
5F6E
100
AcDbEntity
  8
0
100
AcDbLine
 10
1104.990691451665
 20
169.8941144449761
 30
0.0
 11
1105.347894168884
 21
169.8941144449761
 31
0.0
  0
ARC
  5
75BD
330
5F6E
100
AcDbEntity
  8
0
100
AcDbCircle
 10
1105.347894168884
 20
170.0122246811931
 30
0.0
 40
0.11811023622
100
AcDbArc
 50
270.0000000416882
 51
333.4349477811253
  0
LINE
  5
75BE
330
5F6E
100
AcDbEntity
  8
0
100
AcDbLine
 10
1105.453535175667
 20
169.9594041778016
 30
0.0
 11
1105.52267811228
 21
170.0976900510265
 31
0.0
  0
ARC
  5
75BF
330
5F6E
100
AcDbEntity
  8
0
100
AcDbCircle
 10
1105.5754986157
 20
170.0712797992871
 30
0.0
 40
0.05905511811
100
AcDbArc
 50
90.0
 51
153.4349486715374
  0
LINE
  5
75C0
330
5F6E
100
AcDbEntity
  8
0
100
AcDbLine
 10
1105.575498093752
 20
170.1303349174102
 30
0.0
 11
1111.834403112228
 21
170.2556884623024
 31
0.0
  0
ARC
  5
75C1
330
5F6E
100
AcDbEntity
  8
0
100
AcDbCircle
 10
1111.825337120932
 20
170.7083535899416
 30
0.0
 40
0.4527559055100001
100
AcDbArc
 50
271.1473682613777
 51
0.0
  0
LINE
  5
75C2
330
5F6E
100
AcDbEntity
  8
0
100
AcDbLine
 10
1112.278093026445
 20
170.7083535899416
 30
0.0
 11
1112.278093026445
 21
180.1339451535729
 31
0.0
  0
LINE
  5
75C3
330
5F6E
100
AcDbEntity
  8
0
100
AcDbLine
 10
1112.337148144568
 20
180.193000271696
 30
0.0
 11
1113.100927672105
 21
180.193000271696
 31
0.0
  0
LINE
  5
75C4
330
5F6E
100
AcDbEntity
  8
0
100
AcDbLine
 10
1093.219037908409
 20
180.193000271696
 30
0.0
 11
1094.100927672192
 21
180.193000271696
 31
0.0
  0
LINE
  5
75C5
330
5F6E
100
AcDbEntity
  8
0
100
AcDbLine
 10
1094.159982790315
 20
180.1339451535729
 30
0.0
 11
1094.159982790315
 21
170.7083535905237
 31
0.0
  0
LINE
  5
75C6
330
5F6E
100
AcDbEntity
  8
0
100
AcDbLine
 10
1093.219037908409
 20
180.2520553898191
 30
0.0
 11
1093.219037908409
 21
180.193000271696
 31
0.0
  0
ARC
  5
75C7
330
5F6E
100
AcDbEntity
  8
虚线
 48
4.0
370
     9
100
AcDbCircle
 10
1094.100927672192
 20
180.1339451535729
 30
0.0
 40
0.11811023622
100
AcDbArc
 50
0.0
 51
90.0
  0
ARC
  5
75C8
330
5F6E
100
AcDbEntity
  8
虚线
 48
4.0
370
     9
100
AcDbCircle
 10
1112.337148144568
 20
180.1339451535729
 30
0.0
 40
0.11811023622
100
AcDbArc
 50
90.0
 51
180.0
  0
ARC
  5
75C9
330
5F6E
100
AcDbEntity
  8
0
100
AcDbCircle
 10
1112.337148144568
 20
180.1339451535729
 30
0.0
 40
0.05905511811
100
AcDbArc
 50
90.0
 51
180.0
  0
ARC
  5
75CA
330
5F6E
100
AcDbEntity
  8
0
100
AcDbCircle
 10
1094.100927672192
 20
180.1339451535729
 30
0.0
 40
0.05905511811
100
AcDbArc
 50
0.0
 51
90.0
  0
LINE
  5
75CB
330
5F6E
100
AcDbEntity
  8
0
100
AcDbLine
 10
1101.411943398521
 20
150.958613220761
 30
0.0
 11
1094.612738695799
 21
156.2555968587535
 31
0.0
  0
LINE
  5
75CC
330
5F6E
100
AcDbEntity
  8
0
100
AcDbLine
 10
1104.733310437168
 20
151.2718321314737
 30
0.0
 11
1109.055961702852
 21
156.2555968587535
 31
0.0
  0
LINE
  5
75CD
330
5F6E
100
AcDbEntity
  8
0
100
AcDbLine
 10
1109.748563761666
 20
157.5339853553583
 30
0.0
 11
1112.57559532543
 21
154.7069537915945
 31
0.0
  0
ARC
  5
75CE
330
5F6E
100
AcDbEntity
  8
0
100
AcDbCircle
 10
1109.470175265149
 20
157.2555968588408
 30
0.0
 40
0.3937007874
100
AcDbArc
 50
45.00000000000467
 51
90.0
  0
LINE
  5
75CF
330
5F6E
100
AcDbEntity
  8
0
100
AcDbLine
 10
1109.334350199369
 20
156.5339853553
 30
0.0
 11
1112.103725617478
 21
153.7646099371909
 31
0.0
  0
ARC
  5
75D0
330
5F6E
100
AcDbEntity
  8
0
100
AcDbCircle
 10
1109.055961702852
 20
156.2555968587535
 30
0.0
 40
0.3937007874
100
AcDbArc
 50
45.00000000000467
 51
90.0
  0
ARC
  5
75D1
330
5F6E
100
AcDbEntity
  8
0
100
AcDbCircle
 10
1111.825337120932
 20
153.4862214406735
 30
0.0
 40
0.3937007874
100
AcDbArc
 50
0.0
 51
45.00000000000467
  0
LINE
  5
75D2
330
5F6E
100
AcDbEntity
  8
0
100
AcDbLine
 10
1113.612738695741
 20
139.0429984336211
 30
0.0
 11
1117.400502541731
 21
144.2849814403294
 31
0.0
  0
LINE
  5
75D3
330
5F6E
100
AcDbEntity
  8
0
100
AcDbLine
 10
1120.037573274912
 20
144.2849814403294
 30
0.0
 11
1123.825337120903
 21
139.0429984336211
 31
0.0
  0
CIRCLE
  5
75D4
330
5F6E
100
AcDbEntity
  8
0
100
AcDbCircle
 10
1118.719037908293
 20
146.1492976462018
 30
0.0
 40
2.165354330700524
  0
CIRCLE
  5
75D5
330
5F6E
100
AcDbEntity
  8
0
100
AcDbCircle
 10
1118.719037908293
 20
146.1492976462018
 30
0.0
 40
1.791338582670303
  0
CIRCLE
  5
75D6
330
5F6E
100
AcDbEntity
  8
0
100
AcDbCircle
 10
1118.719037908293
 20
146.1492976462018
 30
0.0
 40
2.28346456692
  0
LINE
  5
75D7
330
5F6E
100
AcDbEntity
  8
0
100
AcDbLine
 10
1117.389360111603
 20
148.005683216425
 30
0.0
 11
1113.612738695741
 21
153.2555968587826
 31
0.0
  0
LINE
  5
75D8
330
5F6E
100
AcDbEntity
  8
0
100
AcDbLine
 10
1120.048715705012
 20
148.005683216425
 30
0.0
 11
1123.825337120903
 21
153.2555968587826
 31
0.0
  0
LINE
  5
75D9
330
5F6E
100
AcDbEntity
  8
0
100
AcDbLine
 10
1125.219037908293
 20
180.2520553898191
 30
0.0
 11
1124.33714814451
 21
180.2520553898191
 31
0.0
  0
LINE
  5
75DA
330
5F6E
100
AcDbEntity
  8
虚线
 48
4.0
370
     9
100
AcDbLine
 10
1124.219037908293
 20
180.1339451535729
 30
0.0
 11
1124.219037908293
 21
172.7109050801789
 31
0.0
  0
ARC
  5
75DB
330
5F6E
100
AcDbEntity
  8
虚线
 48
4.0
370
     9
100
AcDbCircle
 10
1123.825337120903
 20
172.7109050801789
 30
0.0
 40
0.3937007874
100
AcDbArc
 50
272.7129419919231
 51
0.0
  0
LINE
  5
75DC
330
5F6E
100
AcDbEntity
  8
0
100
AcDbLine
 10
1125.219037908293
 20
180.193000271696
 30
0.0
 11
1124.33714814451
 21
180.193000271696
 31
0.0
  0
LINE
  5
75DD
330
5F6E
100
AcDbEntity
  8
0
100
AcDbLine
 10
1124.278093026416
 20
180.1339451535729
 30
0.0
 11
1124.278093026416
 21
172.7109392323889
 31
0.0
  0
ARC
  5
75DE
330
5F6E
100
AcDbEntity
  8
0
100
AcDbCircle
 10
1123.825337120903
 20
172.7109392323889
 30
0.0
 40
0.4527559055100001
100
AcDbArc
 50
272.7122796201583
 51
0.0
  0
LINE
  5
75DF
330
5F6E
100
AcDbEntity
  8
0
100
AcDbLine
 10
1125.219037908293
 20
180.2520553898191
 30
0.0
 11
1125.219037908293
 21
180.193000271696
 31
0.0
  0
ARC
  5
75E0
330
5F6E
100
AcDbEntity
  8
虚线
 48
4.0
370
     9
100
AcDbCircle
 10
1124.33714814451
 20
180.1339451535729
 30
0.0
 40
0.11811023622
100
AcDbArc
 50
90.0
 51
180.0
  0
ARC
  5
75E1
330
5F6E
100
AcDbEntity
  8
0
100
AcDbCircle
 10
1124.33714814451
 20
180.1339451535729
 30
0.0
 40
0.05905511811
100
AcDbArc
 50
90.0
 51
180.0
  0
LINE
  5
75E2
330
5F6E
100
AcDbEntity
  8
虚线
 48
4.0
370
     9
100
AcDbLine
 10
1113.219037908322
 20
180.1339451535729
 30
0.0
 11
1113.219037908322
 21
172.7109050821579
 31
0.0
  0
LINE
  5
75E3
330
5F6E
100
AcDbEntity
  8
0
100
AcDbLine
 10
1113.159982790199
 20
180.1339451535729
 30
0.0
 11
1113.159982790199
 21
172.7109392343679
 31
0.0
  0
ARC
  5
75E4
330
5F6E
100
AcDbEntity
  8
虚线
 48
4.0
370
     9
100
AcDbCircle
 10
1113.100927672105
 20
180.1339451535729
 30
0.0
 40
0.11811023622
100
AcDbArc
 50
0.0
 51
90.0
  0
ARC
  5
75E5
330
5F6E
100
AcDbEntity
  8
0
100
AcDbCircle
 10
1113.100927672105
 20
180.1339451535729
 30
0.0
 40
0.05905511811
100
AcDbArc
 50
0.0
 51
90.0
  0
LINE
  5
75E6
330
5F6E
100
AcDbEntity
  8
0
100
AcDbLine
 10
1124.33714814451
 20
180.2520553898191
 30
0.0
 11
1113.100927672105
 21
180.2520553898191
 31
0.0
  0
LINE
  5
75E7
330
5F6E
100
AcDbEntity
  8
虚线
 48
4.0
370
     9
100
AcDbLine
 10
1113.594104015053
 20
172.3176455512127
 30
0.0
 11
1116.362577201001
 21
172.1864609016463
 31
0.0
  0
ARC
  5
75E8
330
5F6E
100
AcDbEntity
  8
虚线
 48
4.0
370
     9
100
AcDbCircle
 10
1113.612738695712
 20
172.7109050821579
 30
0.0
 40
0.3937007874
100
AcDbArc
 50
180.0
 51
267.2870574572279
  0
LINE
  5
75E9
330
5F6E
100
AcDbEntity
  8
虚线
 48
4.0
370
     9
100
AcDbLine
 10
1121.075498093694
 20
172.1864609016463
 30
0.0
 11
1123.843971797778
 21
172.317645549059
 31
0.0
  0
LINE
  5
75EA
330
5F6E
100
AcDbEntity
  8
虚线
 48
4.0
370
     9
100
AcDbLine
 10
1121.075498093694
 20
172.1864609016463
 30
0.0
 11
1116.362577201001
 21
172.1864609016463
 31
0.0
  0
LINE
  5
75EB
330
5F6E
100
AcDbEntity
  8
中心线
 48
2.0
100
AcDbLine
 10
1118.719037908293
 20
170.5148842809846
 30
0.0
 11
1118.719037908293
 21
173.8580375223371
 31
0.0
  0
ARC
  5
75EC
330
5F6E
100
AcDbEntity
  8
虚线
 48
4.0
370
     9
100
AcDbCircle
 10
1116.362577201001
 20
172.0683506654293
 30
0.0
 40
0.11811023622
100
AcDbArc
 50
26.5650510443333
 51
90.0
  0
ARC
  5
75ED
330
5F6E
100
AcDbEntity
  8
虚线
 48
4.0
370
     9
100
AcDbCircle
 10
1121.075498615613
 20
172.0683506654293
 30
0.0
 40
0.11811023622
100
AcDbArc
 50
90.0
 51
153.4349486715374
  0
ARC
  5
75EE
330
5F6E
100
AcDbEntity
  8
虚线
 48
4.0
370
     9
100
AcDbCircle
 10
1116.590181647789
 20
172.0092955473353
 30
0.0
 40
0.05905511811
100
AcDbArc
 50
206.5650516506218
 51
269.9999999583118
  0
ARC
  5
75EF
330
5F6E
100
AcDbEntity
  8
虚线
 48
4.0
370
     9
100
AcDbCircle
 10
1120.847894168797
 20
172.0092955473353
 30
0.0
 40
0.05905511811
100
AcDbArc
 50
270.0000000416882
 51
333.4349477811253
  0
LINE
  5
75F0
330
5F6E
100
AcDbEntity
  8
虚线
 48
4.0
370
     9
100
AcDbLine
 10
1120.900714672218
 20
171.9828852956541
 30
0.0
 11
1120.969857608801
 21
172.1211711688499
 31
0.0
  0
LINE
  5
75F1
330
5F6E
100
AcDbEntity
  8
虚线
 48
4.0
370
     9
100
AcDbLine
 10
1116.590181647789
 20
171.9502404292122
 30
0.0
 11
1116.947384365008
 21
171.9502404292122
 31
0.0
  0
LINE
  5
75F2
330
5F6E
100
AcDbEntity
  8
虚线
 48
4.0
370
     9
100
AcDbLine
 10
1120.490691451606
 20
171.8911853110892
 30
0.0
 11
1120.490691451606
 21
171.9502404292122
 31
0.0
  0
LINE
  5
75F3
330
5F6E
100
AcDbEntity
  8
虚线
 48
4.0
370
     9
100
AcDbLine
 10
1116.537361144397
 20
171.9828852956541
 30
0.0
 11
1116.468218207814
 21
172.1211711688499
 31
0.0
  0
LINE
  5
75F4
330
5F6E
100
AcDbEntity
  8
虚线
 48
4.0
370
     9
100
AcDbLine
 10
1116.947384365008
 20
171.8911853110892
 30
0.0
 11
1116.947384365008
 21
171.9502404292122
 31
0.0
  0
LINE
  5
75F5
330
5F6E
100
AcDbEntity
  8
虚线
 48
4.0
370
     9
100
AcDbLine
 10
1120.490691451606
 20
171.9502404292122
 30
0.0
 11
1120.847894168797
 21
171.9502404292122
 31
0.0
  0
LINE
  5
75F6
330
5F6E
100
AcDbEntity
  8
虚线
 48
4.0
370
     9
100
AcDbLine
 10
1116.947384365008
 20
171.9502404292122
 30
0.0
 11
1120.490691451606
 21
171.9502404292122
 31
0.0
  0
LINE
  5
75F7
330
5F6E
100
AcDbEntity
  8
0
100
AcDbLine
 10
1116.484540641005
 20
171.9564750439437
 30
0.0
 11
1116.415397704393
 21
172.0947609171396
 31
0.0
  0
ARC
  5
75F8
330
5F6E
100
AcDbEntity
  8
0
100
AcDbCircle
 10
1116.362577201001
 20
172.0683506654293
 30
0.0
 40
0.05905511811
100
AcDbArc
 50
26.5650510443333
 51
90.0
  0
LINE
  5
75F9
330
5F6E
100
AcDbEntity
  8
0
100
AcDbLine
 10
1113.591314041394
 20
172.2586905260811
 30
0.0
 11
1116.362577201001
 21
172.1274057835523
 31
0.0
  0
ARC
  5
75FA
330
5F6E
100
AcDbEntity
  8
0
100
AcDbCircle
 10
1113.612738695712
 20
172.7109392343679
 30
0.0
 40
0.4527559055100001
100
AcDbArc
 50
180.0
 51
267.2877198306624
  0
ARC
  5
75FB
330
5F6E
100
AcDbEntity
  8
0
100
AcDbCircle
 10
1116.590181647789
 20
172.0092955473353
 30
0.0
 40
0.11811023622
100
AcDbArc
 50
206.5650516506218
 51
269.9999999583118
  0
LINE
  5
75FC
330
5F6E
100
AcDbEntity
  8
0
100
AcDbLine
 10
1116.590181647789
 20
171.8911853110892
 30
0.0
 11
1116.947384365008
 21
171.8911853110892
 31
0.0
  0
LINE
  5
75FD
330
5F6E
100
AcDbEntity
  8
0
100
AcDbLine
 10
1116.947384365008
 20
171.8911853110892
 30
0.0
 11
1120.490691451606
 21
171.8911853110892
 31
0.0
  0
LINE
  5
75FE
330
5F6E
100
AcDbEntity
  8
0
100
AcDbLine
 10
1120.490691451606
 20
171.8911853110892
 30
0.0
 11
1120.847894168797
 21
171.8911853110892
 31
0.0
  0
ARC
  5
75FF
330
5F6E
100
AcDbEntity
  8
0
100
AcDbCircle
 10
1120.847894168797
 20
172.0092955473353
 30
0.0
 40
0.11811023622
100
AcDbArc
 50
270.0000000416882
 51
333.4349477811253
  0
LINE
  5
7600
330
5F6E
100
AcDbEntity
  8
0
100
AcDbLine
 10
1120.953535175609
 20
171.9564750439437
 30
0.0
 11
1121.022678112221
 21
172.0947609171396
 31
0.0
  0
ARC
  5
7601
330
5F6E
100
AcDbEntity
  8
0
100
AcDbCircle
 10
1121.075498615613
 20
172.0683506654293
 30
0.0
 40
0.05905511811
100
AcDbArc
 50
90.0
 51
153.4349486715374
  0
LINE
  5
7602
330
5F6E
100
AcDbEntity
  8
0
100
AcDbLine
 10
1121.075498093694
 20
172.1274057835523
 30
0.0
 11
1123.846761770855
 21
172.2586905238692
 31
0.0
  0
ARC
  5
7603
330
5F6E
100
AcDbEntity
  8
0
 48
5.0
100
AcDbCircle
 10
1094.068064168928
 20
157.5705574886656
 30
0.0
 40
0.07874015748
100
AcDbArc
 50
90.0
 51
134.9999999999953
  0
ARC
  5
7604
330
5F6E
100
AcDbEntity
  8
0
100
AcDbCircle
 10
1093.297778065887
 20
156.8002713856536
 30
0.0
 40
0.07874015748
100
AcDbArc
 50
134.9999999999953
 51
180.0
  0
LINE
  5
7605
330
5F6E
100
AcDbEntity
  8
0
 48
5.0
100
AcDbLine
 10
1094.012386469596
 20
157.6262351879691
 30
0.0
 11
1093.242100366584
 21
156.8559490849571
 31
0.0
  0
POINT
  5
7606
330
5F6E
100
AcDbEntity
  8
标注
 48
5.0
100
AcDbPoint
 10
1093.219037908409
 20
156.8328866267825
 30
0.0
  0
POINT
  5
7607
330
5F6E
100
AcDbEntity
  8
标注
 48
5.0
100
AcDbPoint
 10
1094.03544892777
 20
157.6492976461436
 30
0.0
  0
ARC
  5
7608
330
5F6E
100
AcDbEntity
  8
0
 48
5.0
100
AcDbCircle
 10
1094.068064168928
 20
137.728037803709
 30
0.0
 40
0.07874015748
100
AcDbArc
 50
225.0000000000047
 51
270.0
  0
ARC
  5
7609
330
5F6E
100
AcDbEntity
  8
0
100
AcDbCircle
 10
1093.297778065887
 20
138.498323906721
 30
0.0
 40
0.07874015748
100
AcDbArc
 50
180.0
 51
225.0000000000047
  0
LINE
  5
760A
330
5F6E
100
AcDbEntity
  8
0
 48
5.0
100
AcDbLine
 10
1094.012386469596
 20
137.6723601044055
 30
0.0
 11
1093.242100366584
 21
138.4426462074175
 31
0.0
  0
POINT
  5
760B
330
5F6E
100
AcDbEntity
  8
标注
 48
5.0
100
AcDbPoint
 10
1093.219037908409
 20
138.465708665592
 30
0.0
  0
POINT
  5
760C
330
5F6E
100
AcDbEntity
  8
标注
 48
5.0
100
AcDbPoint
 10
1094.03544892777
 20
137.6492976462309
 30
0.0
  0
ARC
  5
760D
330
5F6E
100
AcDbEntity
  8
0
 48
5.0
100
AcDbCircle
 10
1124.370011647803
 20
137.728037803709
 30
0.0
 40
0.07874015748
100
AcDbArc
 50
270.0
 51
314.9999999999953
  0
ARC
  5
760E
330
5F6E
100
AcDbEntity
  8
0
100
AcDbCircle
 10
1125.140297750815
 20
138.498323906721
 30
0.0
 40
0.07874015748
100
AcDbArc
 50
314.9999999999953
 51
0.0
  0
LINE
  5
760F
330
5F6E
100
AcDbEntity
  8
0
 48
5.0
100
AcDbLine
 10
1124.425689347106
 20
137.6723601044055
 30
0.0
 11
1125.195975450118
 21
138.4426462074175
 31
0.0
  0
POINT
  5
7610
330
5F6E
100
AcDbEntity
  8
标注
 48
5.0
100
AcDbPoint
 10
1125.219037908293
 20
138.465708665592
 30
0.0
 50
180.0
  0
POINT
  5
7611
330
5F6E
100
AcDbEntity
  8
标注
 48
5.0
100
AcDbPoint
 10
1124.402626888931
 20
137.6492976462309
 30
0.0
 50
180.0
  0
ARC
  5
7612
330
5F6E
100
AcDbEntity
  8
0
 48
5.0
100
AcDbCircle
 10
1124.370011647803
 20
154.5705574886947
 30
0.0
 40
0.07874015748
100
AcDbArc
 50
45.00000000000467
 51
90.0
  0
ARC
  5
7613
330
5F6E
100
AcDbEntity
  8
0
100
AcDbCircle
 10
1125.140297750815
 20
153.8002713856536
 30
0.0
 40
0.07874015748
100
AcDbArc
 50
0.0
 51
45.00000000000467
  0
LINE
  5
7614
330
5F6E
100
AcDbEntity
  8
0
 48
5.0
100
AcDbLine
 10
1124.425689347106
 20
154.6262351879982
 30
0.0
 11
1125.195975450118
 21
153.855949084957
 31
0.0
  0
POINT
  5
7615
330
5F6E
100
AcDbEntity
  8
标注
 48
5.0
100
AcDbPoint
 10
1125.219037908293
 20
153.8328866268116
 30
0.0
 50
180.0
  0
POINT
  5
7616
330
5F6E
100
AcDbEntity
  8
标注
 48
5.0
100
AcDbPoint
 10
1124.402626888931
 20
154.6492976461727
 30
0.0
 50
180.0
  0
POINT
  5
7617
330
5F6E
100
AcDbEntity
  8
标注
 48
5.0
100
AcDbPoint
 10
1109.633251470793
 20
157.6492976462309
 30
0.0
  0
POINT
  5
7618
330
5F6E
100
AcDbEntity
  8
标注
 48
5.0
100
AcDbPoint
 10
1112.633251470851
 20
154.6492976461727
 30
0.0
  0
LINE
  5
7619
330
5F6E
100
AcDbEntity
  8
中心线
  6
Continuous
 62
     1
100
AcDbLine
 10
1124.297778065771
 20
103.8069107860342
 30
0.0
 11
1124.297778065771
 21
118.0195092111958
 31
0.0
  0
ARC
  5
761A
330
5F6E
100
AcDbEntity
  8
中心线
  6
Continuous
 62
     1
100
AcDbCircle
 10
1123.825337120903
 20
118.0195092111958
 30
0.0
 40
0.47244094488
100
AcDbArc
 50
0.0
 51
90.0
  0
LINE
  5
761B
330
5F6E
100
AcDbEntity
  8
中心线
  6
Continuous
 62
     1
100
AcDbLine
 10
1112.447344596428
 20
118.4919501560639
 30
0.0
 11
1123.825337120903
 21
118.4919501560639
 31
0.0
  0
ARC
  5
761C
330
5F6E
100
AcDbEntity
  8
中心线
  6
Continuous
 62
     1
100
AcDbCircle
 10
1112.447344596428
 20
118.9643911009612
 30
0.0
 40
0.47244094488
100
AcDbArc
 50
225.0000000000047
 51
270.0
  0
LINE
  5
761D
330
5F6E
100
AcDbEntity
  8
中心线
  6
Continuous
 62
     1
100
AcDbLine
 10
1094.612738695799
 20
103.3344698411661
 30
0.0
 11
1123.825337120903
 21
103.3344698411661
 31
0.0
  0
ARC
  5
761E
330
5F6E
100
AcDbEntity
  8
中心线
  6
Continuous
 62
     1
100
AcDbCircle
 10
1123.825337120903
 20
103.8069107860342
 30
0.0
 40
0.47244094488
100
AcDbArc
 50
270.0
 51
0.0
  0
LINE
  5
761F
330
5F6E
100
AcDbEntity
  8
中心线
  6
Continuous
 62
     1
100
AcDbLine
 10
1094.140297750931
 20
103.8069107860633
 30
0.0
 11
1094.140297750931
 21
121.0195092111667
 31
0.0
  0
ARC
  5
7620
330
5F6E
100
AcDbEntity
  8
中心线
  6
Continuous
 62
     1
100
AcDbCircle
 10
1094.612738695799
 20
121.0195092111667
 30
0.0
 40
0.47244094488
100
AcDbArc
 50
90.0
 51
180.0
  0
ARC
  5
7621
330
5F6E
100
AcDbEntity
  8
中心线
  6
Continuous
 62
     1
100
AcDbCircle
 10
1094.612738695799
 20
103.8069107860633
 30
0.0
 40
0.47244094488
100
AcDbArc
 50
180.0
 51
270.0
  0
LINE
  5
7622
330
5F6E
100
AcDbEntity
  8
中心线
  6
Continuous
 62
     1
100
AcDbLine
 10
1094.612738695799
 20
121.4919501560639
 30
0.0
 11
1109.055961702852
 21
121.4919501560639
 31
0.0
  0
ARC
  5
7623
330
5F6E
100
AcDbEntity
  8
中心线
  6
Continuous
 62
     1
100
AcDbCircle
 10
1109.055961702852
 20
121.0195092111667
 30
0.0
 40
0.47244094488
100
AcDbArc
 50
45.00000000000467
 51
90.0
  0
LINE
  5
7624
330
5F6E
100
AcDbEntity
  8
中心线
  6
Continuous
 62
     1
100
AcDbLine
 10
1109.178282907279
 20
121.4919501560639
 30
0.0
 11
1109.251653149625
 21
121.4919501560639
 31
0.0
  0
LINE
  5
7625
330
5F6E
100
AcDbEntity
  8
中心线
  6
Continuous
 62
     1
100
AcDbLine
 10
1109.251653149625
 20
121.4919501560639
 30
0.0
 11
1109.297567523597
 21
121.4460357820922
 31
0.0
  0
LINE
  5
7626
330
5F6E
100
AcDbEntity
  8
中心线
  6
Continuous
 62
     1
100
AcDbLine
 10
1109.390027898673
 20
121.3535754070167
 30
0.0
 11
1112.113278400578
 21
118.6303249051111
 31
0.0
  0
LINE
  5
7627
330
5F6E
100
AcDbEntity
  8
中心线
 48
2.0
100
AcDbLine
 10
1103.21903790838
 20
168.5178134148425
 30
0.0
 11
1103.21903790838
 21
171.8609666561949
 31
0.0
  0
LINE
  5
7628
330
5F6E
100
AcDbEntity
  8
0
100
AcDbLine
 10
1094.100927672192
 20
180.193000271696
 30
0.0
 11
1112.337148144568
 21
180.193000271696
 31
0.0
  0
LINE
  5
7629
330
5F6E
100
AcDbEntity
  8
0
100
AcDbLine
 10
1113.100927672105
 20
180.193000271696
 30
0.0
 11
1124.33714814451
 21
180.193000271696
 31
0.0
  0
LINE
  5
762A
330
5F6E
100
AcDbEntity
  8
0
100
AcDbLine
 10
1121.075498615613
 20
172.1274057835523
 30
0.0
 11
1116.362577201001
 21
172.1274057835523
 31
0.0
  0
LINE
  5
762B
330
5F6E
100
AcDbEntity
  8
0
100
AcDbLine
 10
1100.86257720106
 20
170.1303349174102
 30
0.0
 11
1105.5754986157
 21
170.1303349174102
 31
0.0
  0
TEXT
  5
764C
330
5F6E
100
AcDbEntity
  8
标注
100
AcDbText
 10
1110.363191019405
 20
95.91791794550095
 30
0.0
 40
0.7874015748031497
  1
 CUTOUT
100
AcDbText
  0
LINE
  5
764D
330
5F6E
100
AcDbEntity
  8
中心线
  6
Continuous
 62
     1
100
AcDbLine
 10
1102.697784938838
 20
96.17111941280576
 30
0.0
 11
1108.914589942922
 21
96.17111941280576
 31
0.0
  0
TEXT
  5
764E
330
5F6E
100
AcDbEntity
  8
标注
100
AcDbText
 10
1104.164986303234
 20
129.4695482544072
 30
0.0
 40
0.7874015748031497
  1
OVERHEAD VIEW
100
AcDbText
  0
TEXT
  5
764F
330
5F6E
100
AcDbEntity
  8
标注
100
AcDbText
 10
1105.699696358065
 20
163.4982319323042
 30
0.0
 40
0.7874015748031497
  1
FRONT VIEW
100
AcDbText
  0
DIMENSION
  5
7650
330
5F6E
100
AcDbEntity
  8
标注
100
AcDbDimension
  2
*D276
 10
1112.219037908332
 20
135.5113252291895
 30
0.0
 11
1103.21903790837
 21
135.5113252291895
 31
0.0
 70
    32
 71
     5
 42
17.99999999992246
  3
副本STANDARD
100
AcDbAlignedDimension
 13
1094.219037908409
 23
139.0429984336211
 33
0.0
 14
1112.219037908332
 24
139.0429984336211
 34
0.0
100
AcDbRotatedDimension
  0
DIMENSION
  5
765E
330
5F6E
100
AcDbEntity
  8
标注
100
AcDbDimension
  2
*D277
 10
1124.219037908293
 20
135.5113252291895
 30
0.0
 11
1118.719037908317
 21
135.5113252291895
 31
0.0
 70
    32
 71
     5
 42
10.99999999995157
  3
副本STANDARD
100
AcDbAlignedDimension
 13
1113.219037908341
 23
139.0429984336211
 33
0.0
 14
1124.219037908293
 24
139.0429984336211
 34
0.0
100
AcDbRotatedDimension
  0
DIMENSION
  5
766C
330
5F6E
100
AcDbEntity
  8
标注
100
AcDbDimension
  2
*D278
 10
1091.048333272927
 20
156.6492976461727
 30
0.0
 11
1091.048333272927
 21
147.649297646202
 31
0.0
 70
    32
 71
     5
 42
17.99999999994179
  3
副本STANDARD
100
AcDbAlignedDimension
 13
1094.612738695828
 23
138.6492976462309
 33
0.0
 14
1094.612738695828
 24
156.6492976461727
 34
0.0
 50
90.0
100
AcDbRotatedDimension
  0
DIMENSION
  5
767A
330
5F6E
100
AcDbEntity
  8
标注
100
AcDbDimension
  2
*D279
 10
1088.949100061997
 20
157.6492976461445
 30
0.0
 11
1088.949100061997
 21
147.6492976461879
 31
0.0
 70
    32
 71
     5
 42
19.99999999991354
  3
副本STANDARD
100
AcDbAlignedDimension
 13
1094.219037908409
 23
137.6492976462309
 33
0.0
 14
1094.219037908296
 24
157.6492976461445
 34
0.0
 50
90.0
100
AcDbRotatedDimension
  0
DIMENSION
  5
7688
330
5F6E
100
AcDbEntity
  8
标注
100
AcDbDimension
  2
*D280
 10
1126.910265449214
 20
153.6492976461727
 30
0.0
 11
1126.910265449214
 21
146.149297646202
 31
0.0
 70
    32
 71
     5
 42
14.99999999994179
  3
副本STANDARD
100
AcDbAlignedDimension
 13
1123.825337120903
 23
138.6492976462309
 33
0.0
 14
1123.825337120903
 24
153.6492976461727
 34
0.0
 50
90.0
100
AcDbRotatedDimension
  0
DIMENSION
  5
7696
330
5F6E
100
AcDbEntity
  8
标注
100
AcDbDimension
  2
*D281
 10
1128.627244791557
 20
154.6492976461727
 30
0.0
 11
1128.627244791557
 21
146.149297646202
 31
0.0
 70
    32
 71
     5
 42
16.99999999994179
  3
副本STANDARD
100
AcDbAlignedDimension
 13
1124.219037908293
 23
137.6492976462309
 33
0.0
 14
1124.219037908293
 24
154.6492976461727
 34
0.0
 50
90.0
100
AcDbRotatedDimension
  0
DIMENSION
  5
76A4
330
5F6E
100
AcDbEntity
  8
标注
100
AcDbDimension
  2
*D282
 10
1125.219037908293
 20
133.7130756036228
 30
0.0
 11
1109.219037908351
 21
133.7130756036228
 31
0.0
 70
    32
 71
     5
 42
31.99999999988359
  3
副本STANDARD
100
AcDbAlignedDimension
 13
1093.219037908409
 23
138.6492976462309
 33
0.0
 14
1125.219037908293
 24
138.6492976462309
 34
0.0
100
AcDbRotatedDimension
  0
DIMENSION
  5
76B2
330
5F6E
100
AcDbEntity
  8
标注
100
AcDbDimension
  2
*D283
 10
1094.6127386958
 20
156.2555968587534
 30
0.0
 11
1093.600253988969
 21
158.3447249952715
 31
0.0
 70
   164
  1
5-<>
 71
     5
 42
0.393700787400121
  3
副本STANDARD
100
AcDbRadialDimension
 15
1094.334928903186
 25
156.5345628587027
 35
0.0
 40
0.0
1001
ACAD
1000
DSTYLE
1002
{
1070
   288
1070
     1
1002
}
1001
ACAD_DSTYLE_DIMRADIAL_EXTENSION
1070
   387
1070
     1
1070
   388
1040
1.570796326794896
1070
   390
1040
3.141592653589793
  0
DIMENSION
  5
76BC
330
5F6E
100
AcDbEntity
  8
标注
100
AcDbDimension
  2
*D284
 10
1123.825337120903
 20
153.2555968587827
 30
0.0
 11
1124.530643726963
 21
155.8799004967975
 31
0.0
 70
   164
  1
4-<>
 71
     5
 42
0.39370078739978
  3
副本STANDARD
100
AcDbRadialDimension
 15
1124.00121262803
 25
153.6078299009465
 35
0.0
 40
0.0
1001
ACAD
1000
DSTYLE
1002
{
1070
   288
1070
     1
1002
}
1001
ACAD_DSTYLE_DIMRADIAL_EXTENSION
1070
   387
1070
     1
1070
   388
1040
0.0
1070
   390
1040
1.570796326794896
  0
DIMENSION
  5
76EA
330
5F6E
100
AcDbEntity
  8
标注
100
AcDbDimension
  2
*D285
 10
1126.384445311588
 20
172.3114609016493
 30
0.0
 11
1126.384445311588
 21
176.2817581457344
 31
0.0
 70
    32
 71
     5
 42
7.940594488169836
  3
副本STANDARD
100
AcDbAlignedDimension
 13
1125.219037908293
 23
180.2520553898191
 33
0.0
 14
1124.3299719636
 24
172.3114609016493
 34
0.0
 50
90.0
100
AcDbRotatedDimension
  0
DIMENSION
  5
770C
330
5F6E
100
AcDbEntity
  8
标注
100
AcDbDimension
  2
*D286
 10
1090.617624076173
 20
170.1897237893847
 30
0.0
 11
1090.617624076173
 21
175.2208895896021
 31
0.0
 70
    32
 71
     5
 42
10.06233160043433
  3
副本STANDARD
100
AcDbAlignedDimension
 13
1093.219037908409
 23
180.2520553898191
 33
0.0
 14
1093.356586291608
 24
170.1897237893847
 34
0.0
 50
90.0
100
AcDbRotatedDimension
  0
DIMENSION
  5
7744
330
5F6E
100
AcDbEntity
  8
标注
100
AcDbDimension
  2
*D287
 10
1094.6127386958
 20
170.7083456345843
 30
0.0
 11
1095.198511755165
 21
171.6841163083834
 31
0.0
 70
   164
 71
     5
 42
0.393700787400121
  3
副本STANDARD
100
AcDbRadialDimension
 15
1094.307005798563
 25
170.4602978457476
 35
0.0
 40
0.0
1001
ACAD
1000
DSTYLE
1002
{
1070
   288
1070
     1
1002
}
1001
ACAD_DSTYLE_DIMRADIAL_EXTENSION
1070
   387
1070
     1
1070
   388
1040
3.141592653589793
1070
   390
1040
4.692363003922542
  0
DIMENSION
  5
774E
330
5F6E
100
AcDbEntity
  8
标注
100
AcDbDimension
  2
*D288
 10
1113.612738695712
 20
172.7109050821579
 30
0.0
 11
1114.150678800255
 21
173.7005345679518
 31
0.0
 70
   164
 71
     5
 42
0.393700787400121
  3
副本STANDARD
100
AcDbRadialDimension
 15
1113.333419752551
 25
172.4334501525015
 35
0.0
 40
0.0
1001
ACAD
1000
DSTYLE
1002
{
1070
   288
1070
     1
1002
}
1001
ACAD_DSTYLE_DIMRADIAL_EXTENSION
1070
   387
1070
     1
1070
   388
1040
3.141592653589793
1070
   390
1040
4.665039200595889
  0
DIMENSION
  5
7764
330
5F6E
100
AcDbEntity
  8
标注
100
AcDbDimension
  2
*D289
 10
1124.297778065771
 20
100.77367402825
 30
0.0
 11
1109.219037908351
 21
100.77367402825
 31
0.0
 70
    32
 71
     5
 42
30.15748031483963
  3
副本STANDARD
100
AcDbAlignedDimension
 13
1094.140297750931
 23
103.8069107860633
 33
0.0
 14
1124.297778065771
 24
103.8069107860633
 34
0.0
100
AcDbRotatedDimension
  0
DIMENSION
  5
7772
330
5F6E
100
AcDbEntity
  8
标注
100
AcDbDimension
  2
*D290
 10
1126.541296074281
 20
118.4919501560758
 30
0.0
 11
1126.541296074281
 21
110.9132099986211
 31
0.0
 70
    32
 71
     5
 42
15.1574803149097
  3
副本STANDARD
100
AcDbAlignedDimension
 13
1123.825337120903
 23
103.3344698411661
 33
0.0
 14
1123.825337120903
 24
118.4919501560758
 34
0.0
 50
90.0
100
AcDbRotatedDimension
  0
DIMENSION
  5
7780
330
5F6E
100
AcDbEntity
  8
标注
100
AcDbDimension
  2
*D291
 10
1091.668689843156
 20
103.3344698411661
 30
0.0
 11
1091.668689843156
 21
112.4132099986152
 31
0.0
 70
    32
 71
     5
 42
18.15748031489784
  3
副本STANDARD
100
AcDbAlignedDimension
 13
1094.612738695799
 23
121.4919501560639
 33
0.0
 14
1094.612738695799
 24
103.3344698411661
 34
0.0
 50
90.0
100
AcDbRotatedDimension
  0
DIMENSION
  5
779A
330
5F6E
100
AcDbEntity
  8
标注
100
AcDbDimension
  2
*D292
 10
1094.6127386958
 20
103.8069107860634
 30
0.0
 11
1095.007723061172
 21
104.9823665217169
 31
0.0
 70
   164
  1
4-<>
 71
     5
 42
0.4724409448801908
  3
副本STANDARD
100
AcDbRadialDimension
 15
1094.354999688132
 25
103.4109675447701
 35
0.0
 40
0.0
1001
ACAD
1000
DSTYLE
1002
{
1070
   288
1070
     1
1002
}
1001
ACAD_DSTYLE_DIMRADIAL_EXTENSION
1070
   387
1070
     1
1070
   388
1040
3.141592653589793
1070
   390
1040
4.712388980384689
  0
DIMENSION
  5
77A4
330
5F6E
100
AcDbEntity
  8
标注
100
AcDbDimension
  2
*D293
 10
1112.447344596428
 20
118.9643911009611
 30
0.0
 11
1112.539704507055
 21
120.0034754309798
 31
0.0
 70
   164
 71
     5
 42
0.4724409448799634
  3
副本STANDARD
100
AcDbRadialDimension
 15
1112.2112966314
 25
118.5551456921842
 35
0.0
 40
0.0
1001
ACAD
1000
DSTYLE
1002
{
1070
   288
1070
     1
1002
}
1001
ACAD_DSTYLE_DIMRADIAL_EXTENSION
1070
   387
1070
     1
1070
   388
1040
3.926990816987321
1070
   390
1040
4.712388980384689
  0
DIMENSION
  5
77AE
330
5F6E
100
AcDbEntity
  8
标注
100
AcDbDimension
  2
*D294
 10
1109.055961702852
 20
121.0195092111667
 30
0.0
 11
1109.07288571938
 21
122.8917439178633
 31
0.0
 70
   164
 71
     5
 42
0.4724409448796792
  3
副本STANDARD
100
AcDbRadialDimension
 15
1109.215587289581
 25
121.4641665156836
 35
0.0
 40
0.0
1001
ACAD
1000
DSTYLE
1002
{
1070
   288
1070
     1
1002
}
1001
ACAD_DSTYLE_DIMRADIAL_EXTENSION
1070
   387
1070
     1
1070
   388
1040
0.7853981633975287
1070
   390
1040
1.570796326794896
  0
ENDSEC
  0
SECTION
  2
OBJECTS
  0
DICTIONARY
  5
5F06
330
0
100
AcDbDictionary
281
     1
  3
ACAD_COLOR
350
5F64
  3
ACAD_GROUP
350
5F07
  3
ACAD_LAYOUT
350
5F63
  3
ACAD_MATERIAL
350
5F0A
  3
ACAD_MLEADERSTYLE
350
5F67
  3
ACAD_MLINESTYLE
350
5F60
  3
ACAD_PLOTSETTINGS
350
5F62
  3
ACAD_PLOTSTYLENAME
350
5F08
  3
ACAD_SCALELIST
350
5F34
  3
ACAD_TABLESTYLE
350
5F65
  3
ACAD_VISUALSTYLE
350
5F23
  3
ACDB_RECOMPOSE_DATA
350
7886
  3
AcDbVariableDictionary
350
6102
  3
DWGPROPS
350
7887
  3
lxx_dict
350
60F2
  0
DICTIONARY
  5
61B7
330
5EFC
100
AcDbDictionary
280
     1
281
     1
  3
ACAD_LAYERSTATES
360
61B8
  0
DICTIONARY
  5
60F4
330
5F56
100
AcDbDictionary
280
     1
281
     1
  3
ADSK_XREC_LAYER_RECONCILED
360
60F5
  0
DICTIONARY
  5
60F6
330
5F72
100
AcDbDictionary
280
     1
281
     1
  3
ADSK_XREC_LAYER_RECONCILED
360
60F7
  0
DICTIONARY
  5
60F8
330
5F7D
100
AcDbDictionary
280
     1
281
     1
  3
ADSK_XREC_LAYER_RECONCILED
360
60F9
  0
DICTIONARY
  5
60FA
330
5F7E
100
AcDbDictionary
280
     1
281
     1
  3
ADSK_XREC_LAYER_RECONCILED
360
60FB
  0
DICTIONARY
  5
654F
330
5F6E
100
AcDbDictionary
280
     1
281
     1
  3
ACAD_SORTENTS
360
6550
  0
DICTIONARY
  5
5F64
102
{ACAD_REACTORS
330
5F06
102
}
330
5F06
100
AcDbDictionary
281
     1
  0
DICTIONARY
  5
5F07
102
{ACAD_REACTORS
330
5F06
102
}
330
5F06
100
AcDbDictionary
281
     1
  0
DICTIONARY
  5
5F63
102
{ACAD_REACTORS
330
5F06
102
}
330
5F06
100
AcDbDictionary
281
     1
  3
Model
350
5F71
  3
布局1
350
5F6D
  0
DICTIONARY
  5
5F0A
102
{ACAD_REACTORS
330
5F06
102
}
330
5F06
100
AcDbDictionary
281
     1
  3
ByBlock
350
5F13
  3
ByLayer
350
5F0B
  3
Global
350
5F1B
  0
DICTIONARY
  5
5F67
102
{ACAD_REACTORS
330
5F06
102
}
330
5F06
100
AcDbDictionary
281
     1
  3
Standard
350
5F68
  0
DICTIONARY
  5
5F60
102
{ACAD_REACTORS
330
5F06
102
}
330
5F06
100
AcDbDictionary
281
     1
  3
Standard
350
5F61
  0
DICTIONARY
  5
5F62
102
{ACAD_REACTORS
330
5F06
102
}
330
5F06
100
AcDbDictionary
281
     1
  0
ACDBDICTIONARYWDFLT
  5
5F08
102
{ACAD_REACTORS
330
5F06
102
}
330
5F06
100
AcDbDictionary
281
     1
  3
Normal
350
5F09
100
AcDbDictionaryWithDefault
340
5F09
  0
DICTIONARY
  5
5F34
102
{ACAD_REACTORS
330
5F06
102
}
330
5F06
100
AcDbDictionary
281
     1
  3
A0
350
5F35
  3
A1
350
5F36
  3
A2
350
5F37
  3
A3
350
5F38
  3
A4
350
5F39
  3
A5
350
5F3A
  3
A6
350
5F3B
  3
A7
350
5F3C
  3
A8
350
5F3D
  3
A9
350
5F3E
  3
B0
350
5F3F
  3
B1
350
5F40
  3
B2
350
5F41
  3
B3
350
5F42
  3
B4
350
5F43
  3
B5
350
5F44
  3
B6
350
5F45
  3
B7
350
5F46
  3
B8
350
5F47
  3
B9
350
5F48
  3
C0
350
5F49
  3
C1
350
5F4A
  3
C2
350
5F4B
  3
C3
350
5F4C
  3
C4
350
5F4D
  3
C5
350
5F4E
  3
C6
350
5F4F
  3
C7
350
5F50
  3
C8
350
5F51
  3
C9
350
5F52
  3
D0
350
5F53
  3
D1
350
5F54
  3
D2
350
5F55
  0
DICTIONARY
  5
5F65
102
{ACAD_REACTORS
330
5F06
102
}
330
5F06
100
AcDbDictionary
281
     1
  3
Standard
350
5F66
  0
DICTIONARY
  5
5F23
102
{ACAD_REACTORS
330
5F06
102
}
330
5F06
100
AcDbDictionary
281
     1
  3
2dWireframe
350
5F29
  3
3D Hidden
350
5F2B
  3
3dWireframe
350
5F2A
  3
Basic
350
5F28
  3
Brighten
350
5F2F
  3
ColorChange
350
5F33
  3
Conceptual
350
5F2C
  3
Dim
350
5F2E
  3
Facepattern
350
5F32
  3
Flat
350
5F24
  3
FlatWithEdges
350
5F25
  3
Gouraud
350
5F26
  3
GouraudWithEdges
350
5F27
  3
Linepattern
350
5F31
  3
Realistic
350
5F2D
  3
Thicken
350
5F30
  0
XRECORD
  5
7886
102
{ACAD_REACTORS
330
5F06
102
}
330
5F06
100
AcDbXrecord
280
     1
 90
        1
330
5F66
  0
DICTIONARY
  5
6102
102
{ACAD_REACTORS
330
5F06
102
}
330
5F06
100
AcDbDictionary
281
     1
  3
CANNOSCALE
350
6105
  3
CMLEADERSTYLE
350
6104
  3
CTABLESTYLE
350
6103
  3
DIMASSOC
350
6108
  3
INDEXCTL
350
6107
  3
SORTENTS
350
6106
  0
XRECORD
  5
7887
102
{ACAD_REACTORS
330
5F06
102
}
330
5F06
100
AcDbXrecord
280
     1
  1
DWGPROPS COOKIE
  2

  3

  4

  6

  7

  8
Administrator
  9

300
=
301
=
302
=
303
=
304
=
305
=
306
=
307
=
308
=
309
=
 40
0.5625448032407407
 41
2455434.724808658
 42
2458562.57672419
  1

 90
        0
  0
DICTIONARY
  5
60F2
102
{ACAD_REACTORS
330
5F06
102
}
330
5F06
100
AcDbDictionary
281
     1
  3
lxx_dimth
350
60F3
  0
DICTIONARY
  5
61B8
102
{ACAD_REACTORS
330
61B7
102
}
330
61B7
100
AcDbDictionary
281
     1
  0
XRECORD
  5
60F5
102
{ACAD_REACTORS
330
60F4
102
}
330
60F4
100
AcDbXrecord
280
     1
290
     1
  0
XRECORD
  5
60F7
102
{ACAD_REACTORS
330
60F6
102
}
330
60F6
100
AcDbXrecord
280
     1
290
     1
  0
XRECORD
  5
60F9
102
{ACAD_REACTORS
330
60F8
102
}
330
60F8
100
AcDbXrecord
280
     1
290
     1
  0
XRECORD
  5
60FB
102
{ACAD_REACTORS
330
60FA
102
}
330
60FA
100
AcDbXrecord
280
     1
290
     1
  0
SORTENTSTABLE
  5
6550
102
{ACAD_REACTORS
330
654F
102
}
330
654F
100
AcDbSortentsTable
330
5F6E
  0
LAYOUT
  5
5F71
102
{ACAD_XDICTIONARY
360
788E
102
}
102
{ACAD_REACTORS
330
5F63
102
}
330
5F63
100
AcDbPlotSettings
  1

  2
\\192.168.1.64\Canon LBP2900
  4

  6

 40
0.0
 41
0.0
 42
0.0
 43
0.0
 44
0.0
 45
0.0
 46
0.0
 47
0.0
 48
0.0
 49
0.0
140
0.0
141
0.0
142
1.0
143
1.0
 70
  1712
 72
     0
 73
     0
 74
     0
  7

 75
     0
147
1.0
148
0.0
149
0.0
100
AcDbLayout
  1
Model
 70
     1
 71
     0
 10
0.0
 20
0.0
 11
12.0
 21
9.0
 12
0.0
 22
0.0
 32
0.0
 14
0.0
 24
0.0
 34
0.0
 15
0.0
 25
0.0
 35
0.0
146
0.0
 13
0.0
 23
0.0
 33
0.0
 16
1.0
 26
0.0
 36
0.0
 17
0.0
 27
1.0
 37
0.0
 76
     0
330
5F6E
331
5F73
  0
LAYOUT
  5
5F6D
102
{ACAD_XDICTIONARY
360
788C
102
}
102
{ACAD_REACTORS
330
5F63
102
}
330
5F63
100
AcDbPlotSettings
  1

  2
\\192.168.1.64\Canon LBP2900
  4

  6

 40
0.0
 41
0.0
 42
0.0
 43
0.0
 44
0.0
 45
0.0
 46
0.0
 47
0.0
 48
0.0
 49
0.0
140
0.0
141
0.0
142
1.0
143
1.0
 70
   688
 72
     0
 73
     0
 74
     5
  7

 75
    16
147
1.0
148
0.0
149
0.0
100
AcDbLayout
  1
布局1
 70
     1
 71
     1
 10
0.0
 20
0.0
 11
12.0
 21
9.0
 12
0.0
 22
0.0
 32
0.0
 14
1.000000000000000E+20
 24
1.000000000000000E+20
 34
1.000000000000000E+20
 15
-1.000000000000000E+20
 25
-1.000000000000000E+20
 35
-1.000000000000000E+20
146
0.0
 13
0.0
 23
0.0
 33
0.0
 16
1.0
 26
0.0
 36
0.0
 17
0.0
 27
1.0
 37
0.0
 76
     0
330
5F6A
  0
MATERIAL
  5
5F13
102
{ACAD_XDICTIONARY
360
5F14
102
}
102
{ACAD_REACTORS
330
5F0A
102
}
330
5F0A
100
AcDbMaterial
  1
ByBlock
 72
     0
 43
0.0208333333333333
 43
0.0
 43
0.0
 43
0.0
 43
0.0
 43
0.0208333333333333
 43
0.0
 43
0.0
 43
0.0
 43
0.0
 43
1.0
 43
0.0
 43
0.0
 43
0.0
 43
0.0
 43
1.0
 77
     0
 47
0.0208333333333333
 47
0.0
 47
0.0
 47
0.0
 47
0.0
 47
0.0208333333333333
 47
0.0
 47
0.0
 47
0.0
 47
0.0
 47
1.0
 47
0.0
 47
0.0
 47
0.0
 47
0.0
 47
1.0
171
     0
 49
0.0208333333333333
 49
0.0
 49
0.0
 49
0.0
 49
0.0
 49
0.0208333333333333
 49
0.0
 49
0.0
 49
0.0
 49
0.0
 49
1.0
 49
0.0
 49
0.0
 49
0.0
 49
0.0
 49
1.0
175
     0
142
0.0208333333333333
142
0.0
142
0.0
142
0.0
142
0.0
142
0.0208333333333333
142
0.0
142
0.0
142
0.0
142
0.0
142
1.0
142
0.0
142
0.0
142
0.0
142
0.0
142
1.0
179
     0
144
0.0208333333333333
144
0.0
144
0.0
144
0.0
144
0.0
144
0.0208333333333333
144
0.0
144
0.0
144
0.0
144
0.0
144
1.0
144
0.0
144
0.0
144
0.0
144
0.0
144
1.0
147
0.0208333333333333
147
0.0
147
0.0
147
0.0
147
0.0
147
0.0208333333333333
147
0.0
147
0.0
147
0.0
147
0.0
147
1.0
147
0.0
147
0.0
147
0.0
147
0.0
147
1.0
  0
MATERIAL
  5
5F0B
102
{ACAD_XDICTIONARY
360
5F0C
102
}
102
{ACAD_REACTORS
330
5F0A
102
}
330
5F0A
100
AcDbMaterial
  1
ByLayer
 72
     0
 43
0.0208333333333333
 43
0.0
 43
0.0
 43
0.0
 43
0.0
 43
0.0208333333333333
 43
0.0
 43
0.0
 43
0.0
 43
0.0
 43
1.0
 43
0.0
 43
0.0
 43
0.0
 43
0.0
 43
1.0
 77
     0
 47
0.0208333333333333
 47
0.0
 47
0.0
 47
0.0
 47
0.0
 47
0.0208333333333333
 47
0.0
 47
0.0
 47
0.0
 47
0.0
 47
1.0
 47
0.0
 47
0.0
 47
0.0
 47
0.0
 47
1.0
171
     0
 49
0.0208333333333333
 49
0.0
 49
0.0
 49
0.0
 49
0.0
 49
0.0208333333333333
 49
0.0
 49
0.0
 49
0.0
 49
0.0
 49
1.0
 49
0.0
 49
0.0
 49
0.0
 49
0.0
 49
1.0
175
     0
142
0.0208333333333333
142
0.0
142
0.0
142
0.0
142
0.0
142
0.0208333333333333
142
0.0
142
0.0
142
0.0
142
0.0
142
1.0
142
0.0
142
0.0
142
0.0
142
0.0
142
1.0
179
     0
144
0.0208333333333333
144
0.0
144
0.0
144
0.0
144
0.0
144
0.0208333333333333
144
0.0
144
0.0
144
0.0
144
0.0
144
1.0
144
0.0
144
0.0
144
0.0
144
0.0
144
1.0
147
0.0208333333333333
147
0.0
147
0.0
147
0.0
147
0.0
147
0.0208333333333333
147
0.0
147
0.0
147
0.0
147
0.0
147
1.0
147
0.0
147
0.0
147
0.0
147
0.0
147
1.0
  0
MATERIAL
  5
5F1B
102
{ACAD_XDICTIONARY
360
5F1C
102
}
102
{ACAD_REACTORS
330
5F0A
102
}
330
5F0A
100
AcDbMaterial
  1
Global
 72
     0
 43
0.0208333333333333
 43
0.0
 43
0.0
 43
0.0
 43
0.0
 43
0.0208333333333333
 43
0.0
 43
0.0
 43
0.0
 43
0.0
 43
1.0
 43
0.0
 43
0.0
 43
0.0
 43
0.0
 43
1.0
 77
     0
 47
0.0208333333333333
 47
0.0
 47
0.0
 47
0.0
 47
0.0
 47
0.0208333333333333
 47
0.0
 47
0.0
 47
0.0
 47
0.0
 47
1.0
 47
0.0
 47
0.0
 47
0.0
 47
0.0
 47
1.0
171
     0
 49
0.0208333333333333
 49
0.0
 49
0.0
 49
0.0
 49
0.0
 49
0.0208333333333333
 49
0.0
 49
0.0
 49
0.0
 49
0.0
 49
1.0
 49
0.0
 49
0.0
 49
0.0
 49
0.0
 49
1.0
175
     0
142
0.0208333333333333
142
0.0
142
0.0
142
0.0
142
0.0
142
0.0208333333333333
142
0.0
142
0.0
142
0.0
142
0.0
142
1.0
142
0.0
142
0.0
142
0.0
142
0.0
142
1.0
179
     0
144
0.0208333333333333
144
0.0
144
0.0
144
0.0
144
0.0
144
0.0208333333333333
144
0.0
144
0.0
144
0.0
144
0.0
144
1.0
144
0.0
144
0.0
144
0.0
144
0.0
144
1.0
147
0.0208333333333333
147
0.0
147
0.0
147
0.0
147
0.0
147
0.0208333333333333
147
0.0
147
0.0
147
0.0
147
0.0
147
1.0
147
0.0
147
0.0
147
0.0
147
0.0
147
1.0
  0
MLEADERSTYLE
  5
5F68
102
{ACAD_REACTORS
330
5F67
102
}
330
5F67
100
AcDbMLeaderStyle
170
     2
171
     1
172
     0
 90
        2
 40
0.0
 41
0.0
173
     1
 91
-1056964608
340
5F5C
 92
       -2
290
     1
 42
0.09
291
     1
 43
0.36
  3
Standard
 44
0.18
300

342
5F57
174
     1
178
     6
175
     1
176
     0
 93
-1056964608
 45
0.18
292
     0
297
     0
 46
0.18
 94
-1056964608
 47
1.0
 49
1.0
140
1.0
293
     1
141
0.0
294
     1
177
     0
142
1.0
295
     0
296
     0
143
0.125
1001
ACAD_MLEADERVER
1070
     2
  0
MLINESTYLE
  5
5F61
102
{ACAD_REACTORS
330
5F60
102
}
330
5F60
100
AcDbMlineStyle
  2
STANDARD
 70
     0
  3

 62
   256
 51
90.0
 52
90.0
 71
     2
 49
0.5
 62
   256
  6
BYLAYER
 49
-0.5
 62
   256
  6
BYLAYER
  0
ACDBPLACEHOLDER
  5
5F09
102
{ACAD_REACTORS
330
5F08
102
}
330
5F08
  0
SCALE
  5
5F35
102
{ACAD_REACTORS
330
5F34
102
}
330
5F34
100
AcDbScale
 70
     0
300
1:1
140
1.0
141
1.0
290
     1
  0
SCALE
  5
5F36
102
{ACAD_REACTORS
330
5F34
102
}
330
5F34
100
AcDbScale
 70
     0
300
1:2
140
1.0
141
2.0
290
     0
  0
SCALE
  5
5F37
102
{ACAD_REACTORS
330
5F34
102
}
330
5F34
100
AcDbScale
 70
     0
300
1:4
140
1.0
141
4.0
290
     0
  0
SCALE
  5
5F38
102
{ACAD_REACTORS
330
5F34
102
}
330
5F34
100
AcDbScale
 70
     0
300
1:5
140
1.0
141
5.0
290
     0
  0
SCALE
  5
5F39
102
{ACAD_REACTORS
330
5F34
102
}
330
5F34
100
AcDbScale
 70
     0
300
1:8
140
1.0
141
8.0
290
     0
  0
SCALE
  5
5F3A
102
{ACAD_REACTORS
330
5F34
102
}
330
5F34
100
AcDbScale
 70
     0
300
1:10
140
1.0
141
10.0
290
     0
  0
SCALE
  5
5F3B
102
{ACAD_REACTORS
330
5F34
102
}
330
5F34
100
AcDbScale
 70
     0
300
1:16
140
1.0
141
16.0
290
     0
  0
SCALE
  5
5F3C
102
{ACAD_REACTORS
330
5F34
102
}
330
5F34
100
AcDbScale
 70
     0
300
1:20
140
1.0
141
20.0
290
     0
  0
SCALE
  5
5F3D
102
{ACAD_REACTORS
330
5F34
102
}
330
5F34
100
AcDbScale
 70
     0
300
1:30
140
1.0
141
30.0
290
     0
  0
SCALE
  5
5F3E
102
{ACAD_REACTORS
330
5F34
102
}
330
5F34
100
AcDbScale
 70
     0
300
1:40
140
1.0
141
40.0
290
     0
  0
SCALE
  5
5F3F
102
{ACAD_REACTORS
330
5F34
102
}
330
5F34
100
AcDbScale
 70
     0
300
1:50
140
1.0
141
50.0
290
     0
  0
SCALE
  5
5F40
102
{ACAD_REACTORS
330
5F34
102
}
330
5F34
100
AcDbScale
 70
     0
300
1:100
140
1.0
141
100.0
290
     0
  0
SCALE
  5
5F41
102
{ACAD_REACTORS
330
5F34
102
}
330
5F34
100
AcDbScale
 70
     0
300
2:1
140
2.0
141
1.0
290
     0
  0
SCALE
  5
5F42
102
{ACAD_REACTORS
330
5F34
102
}
330
5F34
100
AcDbScale
 70
     0
300
4:1
140
4.0
141
1.0
290
     0
  0
SCALE
  5
5F43
102
{ACAD_REACTORS
330
5F34
102
}
330
5F34
100
AcDbScale
 70
     0
300
8:1
140
8.0
141
1.0
290
     0
  0
SCALE
  5
5F44
102
{ACAD_REACTORS
330
5F34
102
}
330
5F34
100
AcDbScale
 70
     0
300
10:1
140
10.0
141
1.0
290
     0
  0
SCALE
  5
5F45
102
{ACAD_REACTORS
330
5F34
102
}
330
5F34
100
AcDbScale
 70
     0
300
100:1
140
100.0
141
1.0
290
     0
  0
SCALE
  5
5F46
102
{ACAD_REACTORS
330
5F34
102
}
330
5F34
100
AcDbScale
 70
     0
300
1/128" = 1'-0"
140
0.0078125
141
12.0
290
     0
  0
SCALE
  5
5F47
102
{ACAD_REACTORS
330
5F34
102
}
330
5F34
100
AcDbScale
 70
     0
300
1/64" = 1'-0"
140
0.015625
141
12.0
290
     0
  0
SCALE
  5
5F48
102
{ACAD_REACTORS
330
5F34
102
}
330
5F34
100
AcDbScale
 70
     0
300
1/32" = 1'-0"
140
0.03125
141
12.0
290
     0
  0
SCALE
  5
5F49
102
{ACAD_REACTORS
330
5F34
102
}
330
5F34
100
AcDbScale
 70
     0
300
1/16" = 1'-0"
140
0.0625
141
12.0
290
     0
  0
SCALE
  5
5F4A
102
{ACAD_REACTORS
330
5F34
102
}
330
5F34
100
AcDbScale
 70
     0
300
3/32" = 1'-0"
140
0.09375
141
12.0
290
     0
  0
SCALE
  5
5F4B
102
{ACAD_REACTORS
330
5F34
102
}
330
5F34
100
AcDbScale
 70
     0
300
1/8" = 1'-0"
140
0.125
141
12.0
290
     0
  0
SCALE
  5
5F4C
102
{ACAD_REACTORS
330
5F34
102
}
330
5F34
100
AcDbScale
 70
     0
300
3/16" = 1'-0"
140
0.1875
141
12.0
290
     0
  0
SCALE
  5
5F4D
102
{ACAD_REACTORS
330
5F34
102
}
330
5F34
100
AcDbScale
 70
     0
300
1/4" = 1'-0"
140
0.25
141
12.0
290
     0
  0
SCALE
  5
5F4E
102
{ACAD_REACTORS
330
5F34
102
}
330
5F34
100
AcDbScale
 70
     0
300
3/8" = 1'-0"
140
0.375
141
12.0
290
     0
  0
SCALE
  5
5F4F
102
{ACAD_REACTORS
330
5F34
102
}
330
5F34
100
AcDbScale
 70
     0
300
1/2" = 1'-0"
140
0.5
141
12.0
290
     0
  0
SCALE
  5
5F50
102
{ACAD_REACTORS
330
5F34
102
}
330
5F34
100
AcDbScale
 70
     0
300
3/4" = 1'-0"
140
0.75
141
12.0
290
     0
  0
SCALE
  5
5F51
102
{ACAD_REACTORS
330
5F34
102
}
330
5F34
100
AcDbScale
 70
     0
300
1" = 1'-0"
140
1.0
141
12.0
290
     0
  0
SCALE
  5
5F52
102
{ACAD_REACTORS
330
5F34
102
}
330
5F34
100
AcDbScale
 70
     0
300
1-1/2" = 1'-0"
140
1.5
141
12.0
290
     0
  0
SCALE
  5
5F53
102
{ACAD_REACTORS
330
5F34
102
}
330
5F34
100
AcDbScale
 70
     0
300
3" = 1'-0"
140
3.0
141
12.0
290
     0
  0
SCALE
  5
5F54
102
{ACAD_REACTORS
330
5F34
102
}
330
5F34
100
AcDbScale
 70
     0
300
6" = 1'-0"
140
6.0
141
12.0
290
     0
  0
SCALE
  5
5F55
102
{ACAD_REACTORS
330
5F34
102
}
330
5F34
100
AcDbScale
 70
     0
300
1'-0" = 1'-0"
140
12.0
141
12.0
290
     0
  0
TABLESTYLE
  5
5F66
102
{ACAD_XDICTIONARY
360
7884
102
}
102
{ACAD_REACTORS
330
5F65
102
}
330
5F65
100
AcDbTableStyle
  3
Standard
 70
     0
 71
     0
 40
0.06
 41
0.06
280
     0
281
     0
  7
STANDARD
140
0.18
170
     2
 62
     0
 63
     7
283
     0
274
    -2
284
     1
 64
     0
275
    -2
285
     1
 65
     0
276
    -2
286
     1
 66
     0
277
    -2
287
     1
 67
     0
278
    -2
288
     1
 68
     0
279
    -2
289
     1
 69
     0
  7
STANDARD
140
0.25
170
     5
 62
     0
 63
     7
283
     0
274
    -2
284
     1
 64
     0
275
    -2
285
     1
 65
     0
276
    -2
286
     1
 66
     0
277
    -2
287
     1
 67
     0
278
    -2
288
     1
 68
     0
279
    -2
289
     1
 69
     0
  7
STANDARD
140
0.18
170
     5
 62
     0
 63
     7
283
     0
274
    -2
284
     1
 64
     0
275
    -2
285
     1
 65
     0
276
    -2
286
     1
 66
     0
277
    -2
287
     1
 67
     0
278
    -2
288
     1
 68
     0
279
    -2
289
     1
 69
     0
  0
VISUALSTYLE
  5
5F29
102
{ACAD_REACTORS
330
5F23
102
}
330
5F23
100
AcDbVisualStyle
  2
2dWireframe
 70
     4
 71
     0
 72
     2
 73
     0
 90
        0
 40
-0.6
 41
-30.0
 62
     5
 63
     7
 74
     1
 91
        4
 64
     7
 65
   257
 75
     1
175
     1
 42
1.0
 92
        0
 66
   257
 43
1.0
 76
     1
 77
     6
 78
     2
 67
     7
 79
     5
170
     0
171
     0
290
     0
174
     0
 93
        1
 44
0.0
173
     0
291
     0
 45
0.0
1001
ACAD
1000
AcDbSavedByObjectVersion
1070
     0
  0
VISUALSTYLE
  5
5F2B
102
{ACAD_REACTORS
330
5F23
102
}
330
5F23
100
AcDbVisualStyle
  2
3D Hidden
 70
     6
 71
     1
 72
     2
 73
     2
 90
        0
 40
-0.6
 41
-30.0
 62
     5
 63
     7
 74
     2
 91
        2
 64
     7
 65
   257
 75
     2
175
     1
 42
40.0
 92
        0
 66
   257
 43
1.0
 76
     1
 77
     6
 78
     2
 67
     7
 79
     3
170
     0
171
     0
290
     0
174
     0
 93
        1
 44
0.0
173
     0
291
     0
 45
0.0
1001
ACAD
1000
AcDbSavedByObjectVersion
1070
     0
  0
VISUALSTYLE
  5
5F2A
102
{ACAD_REACTORS
330
5F23
102
}
330
5F23
100
AcDbVisualStyle
  2
3dWireframe
 70
     5
 71
     0
 72
     2
 73
     0
 90
        0
 40
-0.6
 41
-30.0
 62
     5
 63
     7
 74
     1
 91
        4
 64
     7
 65
   257
 75
     1
175
     1
 42
1.0
 92
        0
 66
   257
 43
1.0
 76
     1
 77
     6
 78
     2
 67
     7
 79
     5
170
     0
171
     0
290
     0
174
     0
 93
        1
 44
0.0
173
     0
291
     0
 45
0.0
1001
ACAD
1000
AcDbSavedByObjectVersion
1070
     0
  0
VISUALSTYLE
  5
5F28
102
{ACAD_REACTORS
330
5F23
102
}
330
5F23
100
AcDbVisualStyle
  2
Basic
 70
     7
 71
     1
 72
     0
 73
     1
 90
        0
 40
-0.6
 41
-30.0
 62
     5
 63
     7
 74
     0
 91
        4
 64
     7
 65
   257
 75
     1
175
     1
 42
1.0
 92
        8
 66
     7
 43
1.0
 76
     1
 77
     6
 78
     2
 67
     7
 79
     5
170
     0
171
     0
290
     0
174
     0
 93
        1
 44
0.0
173
     0
291
     1
 45
0.0
1001
ACAD
1000
AcDbSavedByObjectVersion
1070
     0
  0
VISUALSTYLE
  5
5F2F
102
{ACAD_REACTORS
330
5F23
102
}
330
5F23
100
AcDbVisualStyle
  2
Brighten
 70
    12
 71
     2
 72
     2
 73
     0
 90
        0
 40
-0.6
 41
-30.0
 62
     5
 63
     7
 74
     1
 91
        4
 64
     7
 65
   257
 75
     1
175
     1
 42
1.0
 92
        8
 66
     7
 43
1.0
 76
     1
 77
     6
 78
     2
 67
     7
 79
     5
170
     0
171
     0
290
     0
174
     0
 93
        1
 44
50.0
173
     0
291
     1
 45
0.0
1001
ACAD
1000
AcDbSavedByObjectVersion
1070
     0
  0
VISUALSTYLE
  5
5F33
102
{ACAD_REACTORS
330
5F23
102
}
330
5F23
100
AcDbVisualStyle
  2
ColorChange
 70
    16
 71
     2
 72
     2
 73
     3
 90
        0
 40
-0.6
 41
-30.0
 62
     5
 63
     8
 74
     1
 91
        4
 64
     7
 65
   257
 75
     1
175
     1
 42
1.0
 92
        8
 66
     8
 43
1.0
 76
     1
 77
     6
 78
     2
 67
     7
 79
     5
170
     0
171
     0
290
     0
174
     0
 93
        1
 44
0.0
173
     0
291
     1
 45
0.0
1001
ACAD
1000
AcDbSavedByObjectVersion
1070
     0
  0
VISUALSTYLE
  5
5F2C
102
{ACAD_REACTORS
330
5F23
102
}
330
5F23
100
AcDbVisualStyle
  2
Conceptual
 70
     9
 71
     3
 72
     2
 73
     0
 90
        0
 40
-0.6
 41
-30.0
 62
     5
 63
     7
 74
     2
 91
        2
 64
     7
 65
   257
 75
     1
175
     1
 42
40.0
 92
        8
 66
     7
 43
1.0
 76
     1
 77
     6
 78
     2
 67
     7
 79
     3
170
     0
171
     0
290
     0
174
     0
 93
        1
 44
0.0
173
     0
291
     0
 45
0.0
1001
ACAD
1000
AcDbSavedByObjectVersion
1070
     0
  0
VISUALSTYLE
  5
5F2E
102
{ACAD_REACTORS
330
5F23
102
}
330
5F23
100
AcDbVisualStyle
  2
Dim
 70
    11
 71
     2
 72
     2
 73
     0
 90
        0
 40
-0.6
 41
-30.0
 62
     5
 63
     7
 74
     1
 91
        4
 64
     7
 65
   257
 75
     1
175
     1
 42
1.0
 92
        8
 66
     7
 43
1.0
 76
     1
 77
     6
 78
     2
 67
     7
 79
     5
170
     0
171
     0
290
     0
174
     0
 93
        1
 44
-50.0
173
     0
291
     1
 45
0.0
1001
ACAD
1000
AcDbSavedByObjectVersion
1070
     0
  0
VISUALSTYLE
  5
5F32
102
{ACAD_REACTORS
330
5F23
102
}
330
5F23
100
AcDbVisualStyle
  2
Facepattern
 70
    15
 71
     2
 72
     2
 73
     0
 90
        0
 40
-0.6
 41
-30.0
 62
     5
 63
     7
 74
     1
 91
        4
 64
     7
 65
   257
 75
     1
175
     1
 42
1.0
 92
        8
 66
     7
 43
1.0
 76
     1
 77
     6
 78
     2
 67
     7
 79
     5
170
     0
171
     0
290
     0
174
     0
 93
        1
 44
0.0
173
     0
291
     1
 45
0.0
1001
ACAD
1000
AcDbSavedByObjectVersion
1070
     0
  0
VISUALSTYLE
  5
5F24
102
{ACAD_REACTORS
330
5F23
102
}
330
5F23
100
AcDbVisualStyle
  2
Flat
 70
     0
 71
     2
 72
     1
 73
     1
 90
        2
 40
-0.6
 41
30.0
 62
     5
 63
     7
 74
     0
 91
        4
 64
     7
 65
   257
 75
     1
175
     1
 42
1.0
 92
        8
 66
     7
 43
1.0
 76
     1
 77
     6
 78
     2
 67
     7
 79
     5
170
     0
171
     0
290
     0
174
     0
 93
       13
 44
0.0
173
     0
291
     1
 45
0.0
1001
ACAD
1000
AcDbSavedByObjectVersion
1070
     0
  0
VISUALSTYLE
  5
5F25
102
{ACAD_REACTORS
330
5F23
102
}
330
5F23
100
AcDbVisualStyle
  2
FlatWithEdges
 70
     1
 71
     2
 72
     1
 73
     1
 90
        2
 40
-0.6
 41
30.0
 62
     5
 63
     7
 74
     1
 91
        4
 64
     7
 65
   257
 75
     1
175
     1
 42
1.0
 92
        0
 66
   257
 43
1.0
 76
     1
 77
     6
 78
     2
 67
     7
 79
     5
170
     0
171
     0
290
     0
174
     0
 93
       13
 44
0.0
173
     0
291
     1
 45
0.0
1001
ACAD
1000
AcDbSavedByObjectVersion
1070
     0
  0
VISUALSTYLE
  5
5F26
102
{ACAD_REACTORS
330
5F23
102
}
330
5F23
100
AcDbVisualStyle
  2
Gouraud
 70
     2
 71
     2
 72
     2
 73
     1
 90
        2
 40
-0.6
 41
30.0
 62
     5
 63
     7
 74
     0
 91
        4
 64
     7
 65
   257
 75
     1
175
     1
 42
1.0
 92
        0
 66
     7
 43
1.0
 76
     1
 77
     6
 78
     2
 67
     7
 79
     5
170
     0
171
     0
290
     0
174
     0
 93
       13
 44
0.0
173
     0
291
     1
 45
0.0
1001
ACAD
1000
AcDbSavedByObjectVersion
1070
     0
  0
VISUALSTYLE
  5
5F27
102
{ACAD_REACTORS
330
5F23
102
}
330
5F23
100
AcDbVisualStyle
  2
GouraudWithEdges
 70
     3
 71
     2
 72
     2
 73
     1
 90
        2
 40
-0.6
 41
30.0
 62
     5
 63
     7
 74
     1
 91
        4
 64
     7
 65
   257
 75
     1
175
     1
 42
1.0
 92
        0
 66
   257
 43
1.0
 76
     1
 77
     6
 78
     2
 67
     7
 79
     5
170
     0
171
     0
290
     0
174
     0
 93
       13
 44
0.0
173
     0
291
     1
 45
0.0
1001
ACAD
1000
AcDbSavedByObjectVersion
1070
     0
  0
VISUALSTYLE
  5
5F31
102
{ACAD_REACTORS
330
5F23
102
}
330
5F23
100
AcDbVisualStyle
  2
Linepattern
 70
    14
 71
     2
 72
     2
 73
     0
 90
        0
 40
-0.6
 41
-30.0
 62
     5
 63
     7
 74
     1
 91
        4
 64
     7
 65
   257
 75
     7
175
     7
 42
1.0
 92
        8
 66
     7
 43
1.0
 76
     1
 77
     6
 78
     2
 67
     7
 79
     5
170
     0
171
     0
290
     0
174
     0
 93
        1
 44
0.0
173
     0
291
     1
 45
0.0
1001
ACAD
1000
AcDbSavedByObjectVersion
1070
     0
  0
VISUALSTYLE
  5
5F2D
102
{ACAD_REACTORS
330
5F23
102
}
330
5F23
100
AcDbVisualStyle
  2
Realistic
 70
     8
 71
     2
 72
     2
 73
     0
 90
        0
 40
-0.6
 41
-30.0
 62
     5
 63
     7
 74
     1
 91
        0
 64
     7
 65
   257
 75
     1
175
     1
 42
1.0
 92
        8
 66
     8
 43
1.0
 76
     1
 77
     6
 78
     2
 67
     7
 79
     5
170
     0
171
     0
290
     0
174
     0
 93
       13
 44
0.0
173
     0
291
     0
 45
0.0
1001
ACAD
1000
AcDbSavedByObjectVersion
1070
     0
  0
VISUALSTYLE
  5
5F30
102
{ACAD_REACTORS
330
5F23
102
}
330
5F23
100
AcDbVisualStyle
  2
Thicken
 70
    13
 71
     2
 72
     2
 73
     0
 90
        0
 40
-0.6
 41
-30.0
 62
     5
 63
     7
 74
     1
 91
        4
 64
     7
 65
   257
 75
     1
175
     1
 42
1.0
 92
       12
 66
     7
 43
1.0
 76
     1
 77
     6
 78
     2
 67
     7
 79
     5
170
     0
171
     0
290
     0
174
     0
 93
        1
 44
0.0
173
     0
291
     1
 45
0.0
1001
ACAD
1000
AcDbSavedByObjectVersion
1070
     0
  0
DICTIONARYVAR
  5
6105
102
{ACAD_REACTORS
330
6102
102
}
330
6102
100
DictionaryVariables
280
     0
  1
1:1
  0
DICTIONARYVAR
  5
6104
102
{ACAD_REACTORS
330
6102
102
}
330
6102
100
DictionaryVariables
280
     0
  1
STANDARD
  0
DICTIONARYVAR
  5
6103
102
{ACAD_REACTORS
330
6102
102
}
330
6102
100
DictionaryVariables
280
     0
  1
STANDARD
  0
DICTIONARYVAR
  5
6108
102
{ACAD_REACTORS
330
6102
102
}
330
6102
100
DictionaryVariables
280
     0
  1
1
  0
DICTIONARYVAR
  5
6107
102
{ACAD_REACTORS
330
6102
102
}
330
6102
100
DictionaryVariables
280
     0
  1
0
  0
DICTIONARYVAR
  5
6106
102
{ACAD_REACTORS
330
6102
102
}
330
6102
100
DictionaryVariables
280
     0
  1
127
  0
VLO-VL
  5
60F3
102
{ACAD_REACTORS
330
60F2
102
}
330
60F2
100
vlo_VL
 90
   -64512
 91
       12
 92
        1
 40
2.5
300
(&VLO-R . 0)
  0
DICTIONARY
  5
788E
330
5F71
100
AcDbDictionary
280
     1
281
     1
  3
ACAD_XREC_ROUNDTRIP
360
788F
  0
DICTIONARY
  5
788C
330
5F6D
100
AcDbDictionary
280
     1
281
     1
  3
ACAD_XREC_ROUNDTRIP
360
788D
  0
DICTIONARY
  5
5F14
330
5F13
100
AcDbDictionary
280
     1
281
     1
  3
ACAD_XREC_ROUNDTRIP
360
7889
  3
BUMPTILE
360
5F16
  3
DIFFUSETILE
360
5F15
  3
OPACITYTILE
360
5F19
  3
REFLECTIONTILE
360
5F18
  3
REFRACTIONTILE
360
5F1A
  3
SPECULARTILE
360
5F17
  0
DICTIONARY
  5
5F0C
330
5F0B
100
AcDbDictionary
280
     1
281
     1
  3
ACAD_XREC_ROUNDTRIP
360
7888
  3
BUMPTILE
360
5F0E
  3
DIFFUSETILE
360
5F0D
  3
OPACITYTILE
360
5F11
  3
REFLECTIONTILE
360
5F10
  3
REFRACTIONTILE
360
5F12
  3
SPECULARTILE
360
5F0F
  0
DICTIONARY
  5
5F1C
330
5F1B
100
AcDbDictionary
280
     1
281
     1
  3
ACAD_XREC_ROUNDTRIP
360
788A
  3
BUMPTILE
360
5F1E
  3
DIFFUSETILE
360
5F1D
  3
OPACITYTILE
360
5F21
  3
REFLECTIONTILE
360
5F20
  3
REFRACTIONTILE
360
5F22
  3
SPECULARTILE
360
5F1F
  0
DICTIONARY
  5
7884
330
5F66
100
AcDbDictionary
280
     1
281
     1
  3
ACAD_ROUNDTRIP_2008_TABLESTYLE_CELLSTYLEMAP
360
7885
  3
ACAD_XREC_ROUNDTRIP
360
788B
  0
XRECORD
  5
788F
102
{ACAD_REACTORS
330
788E
102
}
330
788E
100
AcDbXrecord
280
     1
102
SHADEPLOT
 70
     0
102
SHADEPLOTRESLEVEL
 70
     2
102
SHADEPLOTCUSTOMDPI
 70
   300
  0
XRECORD
  5
788D
102
{ACAD_REACTORS
330
788C
102
}
330
788C
100
AcDbXrecord
280
     1
102
SHADEPLOT
 70
     0
102
SHADEPLOTRESLEVEL
 70
     2
102
SHADEPLOTCUSTOMDPI
 70
   300
  0
XRECORD
  5
7889
102
{ACAD_REACTORS
330
5F14
102
}
330
5F14
100
AcDbXrecord
280
     1
102
MATERIAL
148
0.0
149
0.0
149
0.0
 93
        0
 94
      127
282
     0
 72
     0
 77
     0
171
     0
175
     0
179
     0
273
     0
  0
XRECORD
  5
5F16
102
{ACAD_REACTORS
330
5F14
102
}
330
5F14
100
AcDbXrecord
280
     1
270
     1
271
     1
  0
XRECORD
  5
5F15
102
{ACAD_REACTORS
330
5F14
102
}
330
5F14
100
AcDbXrecord
280
     1
270
     1
271
     1
  0
XRECORD
  5
5F19
102
{ACAD_REACTORS
330
5F14
102
}
330
5F14
100
AcDbXrecord
280
     1
270
     1
271
     1
  0
XRECORD
  5
5F18
102
{ACAD_REACTORS
330
5F14
102
}
330
5F14
100
AcDbXrecord
280
     1
270
     1
271
     1
  0
XRECORD
  5
5F1A
102
{ACAD_REACTORS
330
5F14
102
}
330
5F14
100
AcDbXrecord
280
     1
270
     1
271
     1
  0
XRECORD
  5
5F17
102
{ACAD_REACTORS
330
5F14
102
}
330
5F14
100
AcDbXrecord
280
     1
270
     1
271
     1
  0
XRECORD
  5
7888
102
{ACAD_REACTORS
330
5F0C
102
}
330
5F0C
100
AcDbXrecord
280
     1
102
MATERIAL
148
0.0
149
0.0
149
0.0
 93
        0
 94
      127
282
     0
 72
     0
 77
     0
171
     0
175
     0
179
     0
273
     0
  0
XRECORD
  5
5F0E
102
{ACAD_REACTORS
330
5F0C
102
}
330
5F0C
100
AcDbXrecord
280
     1
270
     1
271
     1
  0
XRECORD
  5
5F0D
102
{ACAD_REACTORS
330
5F0C
102
}
330
5F0C
100
AcDbXrecord
280
     1
270
     1
271
     1
  0
XRECORD
  5
5F11
102
{ACAD_REACTORS
330
5F0C
102
}
330
5F0C
100
AcDbXrecord
280
     1
270
     1
271
     1
  0
XRECORD
  5
5F10
102
{ACAD_REACTORS
330
5F0C
102
}
330
5F0C
100
AcDbXrecord
280
     1
270
     1
271
     1
  0
XRECORD
  5
5F12
102
{ACAD_REACTORS
330
5F0C
102
}
330
5F0C
100
AcDbXrecord
280
     1
270
     1
271
     1
  0
XRECORD
  5
5F0F
102
{ACAD_REACTORS
330
5F0C
102
}
330
5F0C
100
AcDbXrecord
280
     1
270
     1
271
     1
  0
XRECORD
  5
788A
102
{ACAD_REACTORS
330
5F1C
102
}
330
5F1C
100
AcDbXrecord
280
     1
102
MATERIAL
148
0.0
149
0.0
149
0.0
 93
        0
 94
      127
282
     0
 72
     0
 77
     0
171
     0
175
     0
179
     0
273
     0
  0
XRECORD
  5
5F1E
102
{ACAD_REACTORS
330
5F1C
102
}
330
5F1C
100
AcDbXrecord
280
     1
270
     1
271
     1
  0
XRECORD
  5
5F1D
102
{ACAD_REACTORS
330
5F1C
102
}
330
5F1C
100
AcDbXrecord
280
     1
270
     1
271
     1
  0
XRECORD
  5
5F21
102
{ACAD_REACTORS
330
5F1C
102
}
330
5F1C
100
AcDbXrecord
280
     1
270
     1
271
     1
  0
XRECORD
  5
5F20
102
{ACAD_REACTORS
330
5F1C
102
}
330
5F1C
100
AcDbXrecord
280
     1
270
     1
271
     1
  0
XRECORD
  5
5F22
102
{ACAD_REACTORS
330
5F1C
102
}
330
5F1C
100
AcDbXrecord
280
     1
270
     1
271
     1
  0
XRECORD
  5
5F1F
102
{ACAD_REACTORS
330
5F1C
102
}
330
5F1C
100
AcDbXrecord
280
     1
270
     1
271
     1
  0
CELLSTYLEMAP
  5
7885
102
{ACAD_REACTORS
330
7884
102
}
330
7884
100
AcDbCellStyleMap
 90
        3
300
CELLSTYLE
  1
TABLEFORMAT_BEGIN
 90
        5
170
     1
 91
        0
 92
    32768
 62
   257
 93
        1
300
CONTENTFORMAT
  1
CONTENTFORMAT_BEGIN
 90
        0
 91
        0
 92
      512
 93
        0
300

 40
0.0
140
1.0
 94
        5
 62
     0
340
5F57
144
0.25
309
CONTENTFORMAT_END
171
     0
 94
        0
309
TABLEFORMAT_END
  1
CELLSTYLE_BEGIN
 90
        1
 91
        1
300
_TITLE
309
CELLSTYLE_END
300
CELLSTYLE
  1
TABLEFORMAT_BEGIN
 90
        5
170
     1
 91
        0
 92
        0
 62
   257
 93
        1
300
CONTENTFORMAT
  1
CONTENTFORMAT_BEGIN
 90
        0
 91
        0
 92
      512
 93
        0
300

 40
0.0
140
1.0
 94
        5
 62
     0
340
5F57
144
0.18
309
CONTENTFORMAT_END
171
     0
 94
        0
309
TABLEFORMAT_END
  1
CELLSTYLE_BEGIN
 90
        2
 91
        1
300
_HEADER
309
CELLSTYLE_END
300
CELLSTYLE
  1
TABLEFORMAT_BEGIN
 90
        5
170
     1
 91
        0
 92
        0
 62
   257
 93
        1
300
CONTENTFORMAT
  1
CONTENTFORMAT_BEGIN
 90
        0
 91
        0
 92
      512
 93
        0
300

 40
0.0
140
1.0
 94
        2
 62
     0
340
5F57
144
0.18
309
CONTENTFORMAT_END
171
     0
 94
        0
309
TABLEFORMAT_END
  1
CELLSTYLE_BEGIN
 90
        3
 91
        2
300
_DATA
309
CELLSTYLE_END
  0
XRECORD
  5
788B
102
{ACAD_REACTORS
330
7884
102
}
330
7884
100
AcDbXrecord
280
     1
102
ACAD_ROUNDTRIP_PRE2007_TABLESTYLE
 90
      512
 91
        0
  1

 92
      512
 93
        0
  2

 94
      512
 95
        0
  3

  0
ENDSEC
  0
EOF
